[TR24][OF] Falling In Reverse - Коллекция (Standart Edition / Deluxe Edition / Deluxe Edition) - 2013-2017 (Post Hardcore, Alternative)

 
 Статистика раздачи 
Размер: 2.04 ГБ   |  Зарегистрирован: 26 июн 2018, 01:32   |   .torrent скачан: 0 раз
Сидеров: 1  [ 0 байт/сек ]     Личеров: 0  [ 0 байт/сек ]  
  

[TR24][OF] Falling In Reverse - Коллекция (Standart Edition / Deluxe Edition / Deluxe Edition) - 2013-2017 (Post Hardcore, Alternative)

Сообщение Nakazhu » 26 июн 2018, 01:32

Falling In Reverse / Коллекция
Формат записи/Источник записи: [TR24][OF]
Наличие водяных знаков: Нет
Издание: Standart Edition / Deluxe Edition / Deluxe Edition
Год издания/переиздания диска: 2013-2017
Жанр: Post Hardcore, Alternative
Продолжительность: 02:43:12
Наличие сканов в содержимом раздачи: Только обложка альбома
Контейнер: FLAC (*.flac)
Тип рипа: tracks
Разрядность: 24/44,1 / 24/44,1 / 24/48
Формат: WAV (flac.ape.wv)
Количество каналов: 2.0
Источник (релизер): http://www.hdtracks.com/music/artist/view/id/5408/
Спасибо Wells (we-need-match.ru)
Год издания/переиздания диска: 2013
Издатель (лейбл): Epitaph Records
Продолжительность: 00:59:40
Разрядность: 24/44,1
Источник (релизер): http://www.hdtracks.com/fashionably-late
01. Champion (4:03)
02. Bad Girls Club (3:42)
03. Rolling Stone (3:53)
04. Fashionably Late (3:33)
05. Alone (4:39)
06. Born to Lead (5:20)
07. It's Over When It's Over (3:54)
08. Game Over (3:09)
09. Self-Destruct Personality (4:16)
10. Fuck the Rest (4:25)
11. Keep Holding On (4:55)
12. Drifter (2:47)
13. Where Have You Been (3:19)
14. Goddamn (3:10)
15. Rolling Stone (Shy Kidx Remix) (4:40)
Код: Выделить всё
foobar2000 1.3.10 / Замер динамического диапазона (DR) 1.1.1
Дата отчёта:  2018-02-11 15:45:23
--------------------------------------------------------------------------------
Анализ:   ? / ?
--------------------------------------------------------------------------------
DR         Пики         RMS           Продолжительность трека
--------------------------------------------------------------------------------
DR6        0.00 дБ    -7.19 дБ      4:03 ?-01. Falling In Reverse - Champion
DR7        0.00 дБ    -7.96 дБ      3:42 ?-02. Falling In Reverse - Bad Girls Club
DR5        0.00 дБ    -6.60 дБ      3:53 ?-03. Falling In Reverse - Rolling Stone
DR6        0.00 дБ    -7.49 дБ      3:33 ?-04. Falling In Reverse - Fashionably Late
DR6        0.00 дБ    -7.94 дБ      4:39 ?-05. Falling In Reverse - Alone
DR6        0.00 дБ    -7.66 дБ      5:20 ?-06. Falling In Reverse - Born to Lead
DR6        0.00 дБ    -7.46 дБ      3:54 ?-07. Falling In Reverse - It's Over When It's Over
DR6        0.00 дБ    -7.80 дБ      3:09 ?-08. Falling In Reverse - Game Over
DR7        0.00 дБ    -8.20 дБ      4:16 ?-09. Falling In Reverse - Self-Destruct Personality
DR5        0.00 дБ    -7.26 дБ      4:25 ?-10. Falling In Reverse - Fuck The Rest
DR6        0.00 дБ    -8.13 дБ      4:55 ?-11. Falling In Reverse - Keep Holding On
DR7        0.00 дБ    -8.33 дБ      2:47 ?-12. Falling In Reverse - Drifter
DR6        0.00 дБ    -6.77 дБ      3:19 ?-13. Falling In Reverse - Where Have You Been
DR6        0.00 дБ    -7.48 дБ      3:10 ?-14. Falling In Reverse - Goddamn
DR7        0.00 дБ    -7.78 дБ      4:40 ?-15. Falling In Reverse - Rolling Stone (Shy Kidx Remix)
--------------------------------------------------------------------------------
Количество треков: 15
Реальные значения DR: DR6
Частота:   44100 Гц
Каналов:   2
Разрядность:   24
Битрейт:   1810 кбит/с
Кодек:   FLAC
================================================================================
Год издания/переиздания диска: 2015
Издатель (лейбл): Epitaph Records
Продолжительность: 00:52:27
Разрядность: 24/44,1
Источник (релизер): http://www.hdtracks.com/just-like-you-deluxe-edition
01. Chemical Prisoner
02. God, If You Are Above...
03. Sexy Drug
04. Just Like You
05. Guillotine IV (The Final Chapter)
06. Stay Away
07. Wait and See
08. The Bitter End
09. My Heart's To Blame
10. Get Me Out
11. Die For You
12. Brother
13. My Apocalypse II
14. Pray
Код: Выделить всё
foobar2000 1.3.10 / Замер динамического диапазона (DR) 1.1.1
Дата отчёта:  2018-02-11 15:54:47
--------------------------------------------------------------------------------
Анализ:   ? / ?
--------------------------------------------------------------------------------
DR         Пики         RMS           Продолжительность трека
--------------------------------------------------------------------------------
DR6        0.00 дБ    -7.20 дБ      4:20 ?-01. Falling In Reverse - Chemical Prisoner
DR6        0.00 дБ    -7.10 дБ      3:36 ?-02. Falling In Reverse - God If You Are Above
DR6        0.00 дБ    -7.19 дБ      3:15 ?-03. Falling In Reverse - Sexy Drug
DR6        0.00 дБ    -6.81 дБ      3:33 ?-04. Falling In Reverse - Just Like You
DR6        0.00 дБ    -6.89 дБ      3:36 ?-05. Falling In Reverse - Guillotine IV (the Final Chapter)
DR6        0.00 дБ    -7.08 дБ      3:22 ?-06. Falling In Reverse - Stay Away
DR6        0.00 дБ    -7.17 дБ      4:39 ?-07. Falling In Reverse - Wait and See
DR6        0.00 дБ    -6.78 дБ      4:04 ?-08. Falling In Reverse - The Bitter End
DR6        0.00 дБ    -7.21 дБ      3:50 ?-09. Falling In Reverse - My Heart's To Blame
DR7        0.00 дБ    -7.56 дБ      3:45 ?-10. Falling In Reverse - Get Me Out
DR6        0.00 дБ    -6.39 дБ      3:44 ?-11. Falling In Reverse - Die For You
DR9       -1.09 дБ   -13.11 дБ      3:21 ?-12. Falling In Reverse - Brother
DR6        0.00 дБ    -6.48 дБ      3:45 ?-13. Falling In Reverse - My Apocalypse II
DR7        0.00 дБ    -8.07 дБ      3:37 ?-14. Falling In Reverse - Pray
--------------------------------------------------------------------------------
Количество треков: 14
Реальные значения DR: DR6
Частота:   44100 Гц
Каналов:   2
Разрядность:   24
Битрейт:   1669 кбит/с
Кодек:   FLAC
================================================================================
Год издания/переиздания диска: 2017
Издатель (лейбл): Epitaph Records
Продолжительность: 00:51:20
Разрядность: 24/48
Источник (релизер): http://www.hdtracks.com/coming-home-deluxe-edition
01 - Coming Home (4:54)
02 - Broken (3:55)
03 - Loser (4:13)
04 - Fuck You and All Your Friends (3:11)
05 - I Hate Everyone (3:39)
06 - I'm Bad At Life (3:55)
07 - Hanging On (3:48)
08 - Superhero (3:13)
09 - Straight to Hell (3:50)
10 - I Don't Mind (4:24)
11 - The Departure (4:48)
12 - Right Now (3:28)
13 - Paparazzi (4:02)
Код: Выделить всё
foobar2000 1.3.10 / Замер динамического диапазона (DR) 1.1.1
Дата отчёта:  2018-06-26 00:40:43
--------------------------------------------------------------------------------
Анализ:   ? / ?
--------------------------------------------------------------------------------
DR         Пики         RMS           Продолжительность трека
--------------------------------------------------------------------------------
DR5       -0.29 дБ    -6.48 дБ      4:54 ?-01. Falling In Reverse - Coming Home
DR5       -0.36 дБ    -6.81 дБ      3:55 ?-02. Falling In Reverse - Broken
DR5       -0.30 дБ    -6.66 дБ      4:13 ?-03. Falling In Reverse - Loser
DR4       -0.57 дБ    -5.88 дБ      3:11 ?-04. Falling In Reverse - Fuck You and All Your Friends
DR5       -0.21 дБ    -6.66 дБ      3:39 ?-05. Falling In Reverse - I Hate Everyone
DR5       -0.26 дБ    -6.99 дБ      3:55 ?-06. Falling In Reverse - I'm Bad At Life
DR4       -0.51 дБ    -6.00 дБ      3:48 ?-07. Falling In Reverse - Hanging On
DR4       -0.32 дБ    -5.67 дБ      3:13 ?-08. Falling In Reverse - Superhero
DR5       -0.23 дБ    -6.93 дБ      3:50 ?-09. Falling In Reverse - Straight to Hell
DR5       -0.52 дБ    -7.02 дБ      4:24 ?-10. Falling In Reverse - I Don't Mind
DR5       -0.72 дБ    -7.64 дБ      4:48 ?-11. Falling In Reverse - The Departure
DR5       -0.32 дБ    -6.66 дБ      3:28 ?-12. Falling In Reverse - Right Now
DR4       -0.30 дБ    -5.95 дБ      4:02 ?-13. Falling In Reverse - Paparazzi
--------------------------------------------------------------------------------
Количество треков: 13
Реальные значения DR: DR5
Частота:   48000 Гц
Каналов:   2
Разрядность:   24
Битрейт:   1872 кбит/с
Кодек:   FLAC
================================================================================
 
Не забывайте говорить Спасибо. Не уходите с раздачи!   
Торрент: Зарегистрирован [26 июн 2018, 01:32] Скачать торрент
Скачать торрент
[ Размер 16.83 КБ / Просмотров 9 ]
Статус:
Проверен
 
.torrent скачан: 0 раз
Хэш: a78149143762b1f70ad9a95f6a9bdc17f8945510
Размер: 2.04 ГБ (2 187 424 799 байт)
Стать Автором раздачи
 
 
Раздал: 0 байт
Скачал: 0 байт
Ратио: Inf.
Сообщения: 487468
Зарегистрирован: 17 апр 2014, 13:57


  • Похожие торренты
    Ответы
    Просмотры
    Последнее сообщение

Вернуться в Зарубежный рок (Hi-Res stereo)

Ресурс не предоставляет электронные версии произведений, а занимается лишь коллекционированием и каталогизацией ссылок, присылаемых и публикуемых на форуме нашими читателями. Если вы являетесь правообладателем какого-либо представленного материала и не желаете чтобы ссылка на него находилась в нашем каталоге, свяжитесь с нами и мы незамедлительно удалим её. Файлы для обмена на трекере предоставлены пользователями сайта, и администрация не несёт ответственности за их содержание. Просьба не заливать файлы, защищенные авторскими правами, а также файлы нелегального содержания!
cron