Московский выпускной 2018. Парк Горького 2018.06.24 [2018, Pop, DVB]

 
 Статистика раздачи 
Размер: 5.22 ГБ   |  Зарегистрирован: 25 июн 2018, 17:48   |   .torrent скачан: 0 раз
Сидеров: 1  [ 0 байт/сек ]     Личеров: 0  [ 0 байт/сек ]  
  

Московский выпускной 2018. Парк Горького 2018.06.24 [2018, Pop, DVB]

Сообщение Nakazhu » 25 июн 2018, 17:48

Московский выпускной 2018. Парк Горького 2018.06.24
Страна: Россия
Жанр: Pop
Продолжительность: 04:45:00
Год выпуска: 2018
Описание: Танцевальный марафон и тематические зоны по разным направлениям ждут гостей шестого московского выпускного в Парке Горького. На главной сцене на набережной с 22:00 и до рассвета всех выпускников по традиции ждёт большое музыкальное событие - концерт с участием звёздного десанта, чьи треки неустанно штурмуют музыкальные чарты. Хедлайнерами мероприятия станут суперпопулярные Feduk и Мот, которых выпускники выбрали сами в ходе голосования на портале "Активный гражданин". Также гости вечера смогут насладиться хитами от T-Killah, MBAND, Ханны, Юлии Паршуты, Дмитрия Маликова, Настасьи, Dante, ST1M, Романа Бестселлера, GRIVINA, Sabi Miss, Maruv & Boosin, Ida Galich, TERRY, НАZИМА, DanyMuse и многих других любимых исполнителей.
Треклист:
Источник: собственный рип
Качество: DVB
Контейнер: TS
Видео кодек: H.264
Аудио кодек: MP2
Видео: AVC, 720x576 @ 1046x576, (4:3), 25.00fps, 2 235 kb/s
Аудио: MPEG Audio, 48000Hz, 2 channels, 256 Кбит/сек
General
ID : 1 (0x1)
Complete name : L:\1_ИСХОЛНИКИ\Московский выпускной 2018. Парк Горького 2018.06.24.ts
Format : MPEG-TS
File size : 5.22 GiB
Duration : 4 h 45 min
Overall bit rate mode : Variable
Overall bit rate : 2 623 kb/s
Video
ID : 2572 (0xA0C)
Menu ID : 2571 (0xA0B)
Format : AVC
Format/Info : Advanced Video Codec
Format profile : Main@L3
Format settings : CABAC / 4 Ref Frames
Format settings, CABAC : Yes
Format settings, RefFrames : 4 frames
Codec ID : 27
Duration : 4 h 45 min
Bit rate : 2 235 kb/s
Width : 720 pixels
Height : 576 pixels
Display aspect ratio : 16:9
Frame rate : 25.000 FPS
Standard : Component
Color space : YUV
Chroma subsampling : 4:2:0
Bit depth : 8 bits
Scan type : Interlaced
Scan type, store method : Separated fields
Scan order : Top Field First
Bits/(Pixel*Frame) : 0.216
Stream size : 4.45 GiB (85%)
Color range : Limited
Color primaries : BT.601 PAL
Transfer characteristics : BT.470 System B, BT.470 System G
Matrix coefficients : BT.470 System B, BT.470 System G
Audio
ID : 2575 (0xA0F)
Menu ID : 2571 (0xA0B)
Format : MPEG Audio
Format version : Version 1
Format profile : Layer 2
Codec ID : 3
Duration : 4 h 45 min
Bit rate mode : Constant
Bit rate : 256 kb/s
Channel(s) : 2 channels
Sampling rate : 48.0 kHz
Compression mode : Lossy
Stream size : 522 MiB (10%)
Language : English
 
Не забывайте говорить Спасибо. Не уходите с раздачи!   
Торрент: Зарегистрирован [25 июн 2018, 17:48] Скачать торрент
Скачать торрент
[ Размер 13.56 КБ / Просмотров 5 ]
Статус:
Проверен
 
.torrent скачан: 0 раз
Хэш: a860f3a8c8d8b7427624f53b4414f0823cc0cc9b
Размер: 5.22 ГБ (5 607 957 280 байт)
Стать Автором раздачи
 
 
Раздал: 0 байт
Скачал: 0 байт
Ратио: Inf.
Сообщения: 487468
Зарегистрирован: 17 апр 2014, 13:57


  • Похожие торренты
    Ответы
    Просмотры
    Последнее сообщение

Вернуться в Отечественная поп-музыка (Видео)

Ресурс не предоставляет электронные версии произведений, а занимается лишь коллекционированием и каталогизацией ссылок, присылаемых и публикуемых на форуме нашими читателями. Если вы являетесь правообладателем какого-либо представленного материала и не желаете чтобы ссылка на него находилась в нашем каталоге, свяжитесь с нами и мы незамедлительно удалим её. Файлы для обмена на трекере предоставлены пользователями сайта, и администрация не несёт ответственности за их содержание. Просьба не заливать файлы, защищенные авторскими правами, а также файлы нелегального содержания!
cron