Взрывная блондинка / Atomic Blonde (Дэвид Литч / David Leitch) [2017, Германия, Швеция, США, боевик, триллер, детектив, BDRip 1080p] Dub (iTunes) + AVO (Вартан Дохалов) + AVO (Дмитрий Есарев) + AVO (Юрий Живов) + Sub Rus + Original Eng

 
 Статистика раздачи 
Размер: 18.27 ГБ   |  Зарегистрирован: 24 июн 2018, 22:57   |   .torrent скачан: 0 раз
Сидеров: 1  [ 0 байт/сек ]     Личеров: 0  [ 0 байт/сек ]  
  

Взрывная блондинка / Atomic Blonde (Дэвид Литч / David Leitch) [2017, Германия, Швеция, США, боевик, триллер, детектив, BDRip 1080p] Dub (iTunes) + AVO (Вартан Дохалов) + AVO (Дмитрий Есарев) + AVO (Юрий Живов) + Sub Rus + Original Eng

Сообщение Nakazhu » 24 июн 2018, 22:57

Взрывная блондинка
Atomic Blonde
«Talents can be overrated»

Страна: Германия, Швеция, США
Жанр: боевик, триллер, детектив
Год выпуска: 2017
Продолжительность: 01:54:44
Перевод: Профессиональный (дублированный) iTunes
Перевод 2: Авторский (одноголосый закадровый) Вартан Дохалов
Перевод 3: Авторский (одноголосый закадровый) Дмитрий Есарев
Перевод 4: Авторский (одноголосый закадровый) Юрий Живов
Субтитры: русские (For,full),английские(full,SDH, forced)
Оригинальная аудиодорожка: английский
Режиссер: Дэвид Литч / David Leitch
В ролях: Шарлиз Терон , Джеймс МакЭвой, Эдди Марсан, Джон Гудман, Тоби Джонс, Джеймс Фолкнер, Роланд Мюллер, София Бутелла, Билл Скарсгард, Сэм Харгрейв, Йоуханнес Хёйкьюр Йоуханнессон, Тиль Швайгер.
Описание: Агент Лоррейн Бротон, бриллиант в короне Секретной разведывательной службы Ее Величества, не просто мастер шпионажа: она бомбически сексуальна, взрывоопасна и использует весь арсенал своих уникальных умений во время невыполнимых миссий. В неспокойном Берлине, куда ее направляют с заданием вернуть бесценное досье, она вынуждена объединиться с агентом под прикрытием Дэвидом Персивалем. Вместе им предстоит проложить путь через тернии смертельных шпионских игр.
| IMDb |
Тип релиза: BDRip 1080p от DON
Контейнер: MKV
Видео: AVC, (High@L4.1) , 1920x804, 16200 kbps / 23,976 fps
Аудио: русский, AC3 , 5.1 / 48 kHz / 384 kbps - iTunes
Аудио 2: русский, DTS , 5.1 / 48 kHz / 1509 kbps - AVO Вартан Дохалов
Аудио 3: русский, DTS , 5.1 / 48 kHz / 1509 kbps - AVO Дмитрий Есарев
Аудио 4: русский, DTS , 5.1 / 48 kHz / 1509 kbps - AVO Юрий Живов
Аудио 5: английская, DTS , 5.1 / 48 kHz / 1509 kbps
Аудио 6: английский, AAC-LC 2ch @ 96 Kbps avg (Commentary with Director David Leitch and Editor Elísabet Ronaldsdóttir)
Формат субтитров: softsub (SRT)
Код:
Код: Выделить всё
General
Unique ID                   : 137974865723655222936539563897150577995 (0x67CCFE178F66DE8EDE2E8114F2A91D4B)
Complete name               : I:\Atomic.Blonde.2017.REPACK.1080p.4xRus.Eng-DON.mkv
Format                      : Matroska
Format version              : Version 4 / Version 2
File size                   : 18.3 GiB
Duration                    : 1 h 54 min
Overall bit rate            : 22.8 Mb/s
Movie name                  : Atomic Blonde 2017 REPACK 1080p BluRay DTS x264-DON
Encoded date                : UTC 2018-06-24 18:28:40
Writing application         : mkvmerge v24.0.0 ('Beyond The Pale') 64-bit
Writing library             : libebml v1.3.6 + libmatroska v1.4.9
Cover                       : Yes
Attachments                 : cover.jpg / cover.jpg
Video
ID                          : 1
Format                      : AVC
Format/Info                 : Advanced Video Codec
Format profile              : High@L4.1
Format settings             : CABAC / 5 Ref Frames
Format settings, CABAC      : Yes
Format settings, ReFrames   : 5 frames
Codec ID                    : V_MPEG4/ISO/AVC
Duration                    : 1 h 54 min
Bit rate                    : 16.2 Mb/s
Width                       : 1 920 pixels
Height                      : 804 pixels
Display aspect ratio        : 2.40:1
Frame rate mode             : Constant
Frame rate                  : 23.976 (24000/1001) FPS
Color space                 : YUV
Chroma subsampling          : 4:2:0
Bit depth                   : 8 bits
Scan type                   : Progressive
Bits/(Pixel*Frame)          : 0.437
Stream size                 : 13.0 GiB (71%)
Writing library             : x264 core 152 r2851+58 429492e t_mod_Custom [8-bit@all X86_64]
Encoding settings           : cabac=1 / ref=5 / deblock=1:-3:-3 / analyse=0x3:0x133 / me=umh / subme=10 / psy=1 / fade_compensate=0.00 / psy_rd=1.00:0.00 / mixed_ref=1 / me_range=32 / chroma_me=1 / trellis=2 / 8x8dct=1 / cqm=0 / deadzone=21,11 / fast_pskip=0 / chroma_qp_offset=-2 / threads=8 / lookahead_threads=1 / sliced_threads=0 / nr=0 / decimate=0 / interlaced=0 / bluray_compat=0 / constrained_intra=0 / fgo=0 / bframes=9 / b_pyramid=2 / b_adapt=2 / b_bias=0 / direct=3 / weightb=1 / open_gop=0 / weightp=2 / keyint=250 / keyint_min=23 / scenecut=40 / intra_refresh=0 / rc_lookahead=150 / rc=crf / mbtree=0 / crf=16.8000 / qcomp=0.65 / qpmin=0:0:0 / qpmax=69:69:69 / qpstep=4 / vbv_maxrate=62500 / vbv_bufsize=78125 / crf_max=0.0 / nal_hrd=none / filler=0 / ip_ratio=1.30 / pb_ratio=1.20 / aq=3:0.75 / aq-sensitivity=10.00 / aq-factor=1.00:1.00:1.00 / aq2=0 / aq3=0 / zones=1,313,crf=10/3933,3947,crf=9.8/118213,118504,crf=10
Language                    : English
Default                     : Yes
Forced                      : No
Color range                 : Limited
Matrix coefficients         : BT.709
Audio #1
ID                          : 2
Format                      : AC-3
Format/Info                 : Audio Coding 3
Codec ID                    : A_AC3
Duration                    : 1 h 54 min
Bit rate mode               : Constant
Bit rate                    : 384 kb/s
Channel(s)                  : 6 channels
Channel positions           : Front: L C R, Side: L R, LFE
Sampling rate               : 48.0 kHz
Frame rate                  : 31.250 FPS (1536 SPF)
Bit depth                   : 16 bits
Compression mode            : Lossy
Stream size                 : 315 MiB (2%)
Title                       : Дубляж, iTunes
Language                    : Russian
Service kind                : Complete Main
Default                     : Yes
Forced                      : No
Audio #2
ID                          : 3
Format                      : DTS
Format/Info                 : Digital Theater Systems
Codec ID                    : A_DTS
Duration                    : 1 h 54 min
Bit rate mode               : Constant
Bit rate                    : 1 509 kb/s
Channel(s)                  : 6 channels
Channel positions           : Front: L C R, Side: L R, LFE
Sampling rate               : 48.0 kHz
Frame rate                  : 93.750 FPS (512 SPF)
Bit depth                   : 24 bits
Compression mode            : Lossy
Stream size                 : 1.21 GiB (7%)
Title                       : AVO Вартан Дохалов
Language                    : Russian
Default                     : No
Forced                      : No
Audio #3
ID                          : 4
Format                      : DTS
Format/Info                 : Digital Theater Systems
Codec ID                    : A_DTS
Duration                    : 1 h 54 min
Bit rate mode               : Constant
Bit rate                    : 1 509 kb/s
Channel(s)                  : 6 channels
Channel positions           : Front: L C R, Side: L R, LFE
Sampling rate               : 48.0 kHz
Frame rate                  : 93.750 FPS (512 SPF)
Bit depth                   : 24 bits
Compression mode            : Lossy
Stream size                 : 1.21 GiB (7%)
Title                       : AVO Дмитрий Есарев
Language                    : Russian
Default                     : No
Forced                      : No
Audio #4
ID                          : 5
Format                      : DTS
Format/Info                 : Digital Theater Systems
Codec ID                    : A_DTS
Duration                    : 1 h 54 min
Bit rate mode               : Constant
Bit rate                    : 1 509 kb/s
Channel(s)                  : 6 channels
Channel positions           : Front: L C R, Side: L R, LFE
Sampling rate               : 48.0 kHz
Frame rate                  : 93.750 FPS (512 SPF)
Bit depth                   : 24 bits
Compression mode            : Lossy
Stream size                 : 1.21 GiB (7%)
Title                       : AVO Юрий Живов
Language                    : Russian
Default                     : No
Forced                      : No
Audio #5
ID                          : 6
Format                      : DTS
Format/Info                 : Digital Theater Systems
Codec ID                    : A_DTS
Duration                    : 1 h 54 min
Bit rate mode               : Constant
Bit rate                    : 1 509 kb/s
Channel(s)                  : 6 channels
Channel positions           : Front: L C R, Side: L R, LFE
Sampling rate               : 48.0 kHz
Frame rate                  : 93.750 FPS (512 SPF)
Bit depth                   : 24 bits
Compression mode            : Lossy
Stream size                 : 1.21 GiB (7%)
Language                    : English
Default                     : No
Forced                      : No
Audio #6
ID                          : 7
Format                      : AC-3
Format/Info                 : Audio Coding 3
Codec ID                    : A_AC3
Duration                    : 1 h 54 min
Bit rate mode               : Constant
Bit rate                    : 192 kb/s
Channel(s)                  : 2 channels
Channel positions           : Front: L R
Sampling rate               : 48.0 kHz
Frame rate                  : 31.250 FPS (1536 SPF)
Bit depth                   : 16 bits
Compression mode            : Lossy
Stream size                 : 158 MiB (1%)
Title                       : Commentary with Director David Leitch and Editor Elísabet Ronaldsdóttir
Language                    : English
Service kind                : Complete Main
Default                     : No
Forced                      : No
Text #1
ID                          : 8
Format                      : UTF-8
Codec ID                    : S_TEXT/UTF8
Codec ID/Info               : UTF-8 Plain Text
Duration                    : 1 h 47 min
Bit rate                    : 2 b/s
Count of elements           : 43
Stream size                 : 1.67 KiB (0%)
Title                       : Forced
Language                    : Russian
Default                     : Yes
Forced                      : Yes
Text #2
ID                          : 9
Format                      : UTF-8
Codec ID                    : S_TEXT/UTF8
Codec ID/Info               : UTF-8 Plain Text
Duration                    : 1 h 47 min
Bit rate                    : 63 b/s
Count of elements           : 1083
Stream size                 : 50.5 KiB (0%)
Language                    : Russian
Default                     : No
Forced                      : No
Text #3
ID                          : 10
Format                      : UTF-8
Codec ID                    : S_TEXT/UTF8
Codec ID/Info               : UTF-8 Plain Text
Duration                    : 1 h 47 min
Bit rate                    : 2 b/s
Count of elements           : 42
Stream size                 : 1.64 KiB (0%)
Title                       : Forced
Language                    :  English
Default                     : No
Forced                      : Yes
Text #4
ID                          : 11
Format                      : UTF-8
Codec ID                    : S_TEXT/UTF8
Codec ID/Info               : UTF-8 Plain Text
Duration                    : 1 h 47 min
Bit rate                    : 38 b/s
Count of elements           : 913
Stream size                 : 30.0 KiB (0%)
Language                    : English
Default                     : No
Forced                      : No
Text #5
ID                          : 12
Format                      : UTF-8
Codec ID                    : S_TEXT/UTF8
Codec ID/Info               : UTF-8 Plain Text
Duration                    : 1 h 47 min
Bit rate                    : 47 b/s
Count of elements           : 1284
Stream size                 : 37.5 KiB (0%)
Title                       : SDH
Language                    : English
Default                     : No
Forced                      : No
Menu
00:00:00.000                : en:00:00:00.000
00:06:47.990                : en:00:06:47.990
00:11:03.162                : en:00:11:03.162
00:18:17.221                : en:00:18:17.221
00:24:15.577                : en:00:24:15.577
00:27:47.163                : en:00:27:47.163
00:32:50.009                : en:00:32:50.009
00:36:20.094                : en:00:36:20.094
00:40:46.152                : en:00:40:46.152
00:47:55.664                : en:00:47:55.664
00:53:13.481                : en:00:53:13.481
00:59:54.090                : en:00:59:54.090
01:03:32.766                : en:01:03:32.766
01:08:03.788                : en:01:08:03.788
01:10:52.412                : en:01:10:52.412
01:18:27.452                : en:01:18:27.452
01:24:28.270                : en:01:24:28.270
01:32:44.265                : en:01:32:44.265
01:42:06.243                : en:01:42:06.243
01:48:21.077                : en:01:48:21.077

Код:
Код: Выделить всё
Энкод без hardcoded subtitles



 
Не забывайте говорить Спасибо. Не уходите с раздачи!   
Торрент: Зарегистрирован [24 июн 2018, 22:57] Скачать торрент
Скачать торрент
[ Размер 183.13 КБ / Просмотров 0 ]
Статус:
Проверен
 
.torrent скачан: 0 раз
Хэш: 68f74f4c8eaf11e797996b9ac0efa8bbabd00f27
Размер: 18.27 ГБ (19 612 862 161 байт)
Стать Автором раздачи
 
 
Раздал: 0 байт
Скачал: 0 байт
Ратио: Inf.
Сообщения: 487468
Зарегистрирован: 17 апр 2014, 13:57


  • Похожие торренты
    Ответы
    Просмотры
    Последнее сообщение

Вернуться в HD Video на модерации

Ресурс не предоставляет электронные версии произведений, а занимается лишь коллекционированием и каталогизацией ссылок, присылаемых и публикуемых на форуме нашими читателями. Если вы являетесь правообладателем какого-либо представленного материала и не желаете чтобы ссылка на него находилась в нашем каталоге, свяжитесь с нами и мы незамедлительно удалим её. Файлы для обмена на трекере предоставлены пользователями сайта, и администрация не несёт ответственности за их содержание. Просьба не заливать файлы, защищенные авторскими правами, а также файлы нелегального содержания!
cron