Дверь спасения [2011, торжество Православия, DVDRip]

 
 Статистика раздачи 
Размер: 450.55 МБ   |  Зарегистрирован: 24 июн 2018, 21:40   |   .torrent скачан: 0 раз
Сидеров: 1  [ 0 байт/сек ]     Личеров: 0  [ 0 байт/сек ]  
  

Дверь спасения [2011, торжество Православия, DVDRip]

Сообщение Nakazhu » 24 июн 2018, 21:40

Дверь спасения
Дата/Год выпуска: 2011
Страна
: Россия
Жанр: торжество Православия
Продолжительность: 00:38:24
Перевод: Не требуется
Русские субтитры: нет
Оригинальная аудиодорожка: русский
Описание: Фильм представляет собой краткое видео-пособие для желающих познако­миться с духовно-ориентированной программой «Обитель исцеления», направленной на реабилитацию зависимой от наркотиков молодежи.
Шаг за шагом в фильме рассказываются основные компоненты данной программы, основанной на православном вероучении.
Несомненный интерес вызовут диалоги самих реабилитируемых со священником, передающие эмоционально окрашенные тонкие грани душевных переживаний молодых ребят, постепенно осознающих свою прежнюю жизнь.
Звучащее в фильме живое слово пропо­ведей и интервью со священником согревает сердца, проясняет смысл Божественных заповедей и святоотеческих учений, знакомит с православными традициями, что помогает глубже понять механизм исцеления от зависимостей, заложенный в программу «Обитель исцеления».
Съемки фильма велись в дневном стационаре в Свято-Троицкой Александро-Невской Лавре, в центре для наркозависимых при православном приходе Коневской иконы Божией матери в поселке Саперное, в Свято-Никольской женской общине в поселке Торфяное.
качество: DVDRip
формат: AVI
Видео: MPEG4, XviD, 704x384 (16:9), 25.000 fps, 1 534 Kbps (0.227 bit/pixel)
Аудио: MP3, 44.1 KHz, 2 ch, 96.0 Kbps, CBR
Код: Выделить всё
General
Complete name                            : G:\Дверь спасения.avi
Format                                   : AVI
Format/Info                              : Audio Video Interleave
File size                                : 451 MiB
Duration                                 : 38mn 24s
Overall bit rate                         : 1 640 Kbps
Video
ID                                       : 0
Format                                   : MPEG-4 Visual
Format profile                           : Advanced Simple@L5
Format settings, BVOP                    : 1
Format settings, QPel                    : No
Format settings, GMC                     : No warppoints
Format settings, Matrix                  : Default (H.263)
Codec ID                                 : XVID
Codec ID/Hint                            : XviD
Duration                                 : 38mn 24s
Bit rate                                 : 1 534 Kbps
Width                                    : 704 pixels
Height                                   : 384 pixels
Display aspect ratio                     : 1.85:1
Frame rate                               : 25.000 fps
Color space                              : YUV
Chroma subsampling                       : 4:2:0
Bit depth                                : 8 bits
Scan type                                : Progressive
Compression mode                         : Lossy
Bits/(Pixel*Frame)                       : 0.227
Stream size                              : 422 MiB (94%)
Writing library                          : XviD 1.1.2 (UTC 2006-11-01)
Audio
ID                                       : 1
Format                                   : MPEG Audio
Format version                           : Version 1
Format profile                           : Layer 3
Mode                                     : Dual mono
Codec ID                                 : 55
Codec ID/Hint                            : MP3
Duration                                 : 38mn 24s
Bit rate mode                            : Constant
Bit rate                                 : 96.0 Kbps
Channel(s)                               : 2 channels
Sampling rate                            : 44.1 KHz
Compression mode                         : Lossy
Stream size                              : 26.4 MiB (6%)
Alignment                                : Split accross interleaves
Interleave, duration                     : 40 ms (1.00 video frame)
Interleave, preload duration             : 500 ms
 
Не забывайте говорить Спасибо. Не уходите с раздачи!   
Торрент: Зарегистрирован [24 июн 2018, 21:40] Для скачивания .torrent
необходима регистрация
Или скачать с помощью
MediaGet
Статус:
Проверен
 
.torrent скачан: 0 раз
Хэш: 1c9fead510081077bb1b1d342252bc7a73f95a36
Размер: 450.55 МБ (472 437 410 байт)
Стать Автором раздачи
 
 
Раздал: 0 байт
Скачал: 0 байт
Ратио: Inf.
Сообщения: 487468
Зарегистрирован: 17 апр 2014, 13:57


  • Похожие торренты
    Ответы
    Просмотры
    Последнее сообщение

Вернуться в Вера и религия (видео)

Ресурс не предоставляет электронные версии произведений, а занимается лишь коллекционированием и каталогизацией ссылок, присылаемых и публикуемых на форуме нашими читателями. Если вы являетесь правообладателем какого-либо представленного материала и не желаете чтобы ссылка на него находилась в нашем каталоге, свяжитесь с нами и мы незамедлительно удалим её. Файлы для обмена на трекере предоставлены пользователями сайта, и администрация не несёт ответственности за их содержание. Просьба не заливать файлы, защищенные авторскими правами, а также файлы нелегального содержания!
cron