Церковь в защиту жизни (А. Соловьёв) [2007, торжество Православия, DVDRip]

 
 Статистика раздачи 
Размер: 401.12 МБ   |  Зарегистрирован: 24 июн 2018, 21:24   |   .torrent скачан: 0 раз
Сидеров: 1  [ 0 байт/сек ]     Личеров: 0  [ 0 байт/сек ]  
  

Церковь в защиту жизни (А. Соловьёв) [2007, торжество Православия, DVDRip]

Сообщение Nakazhu » 24 июн 2018, 21:24

Церковь в защиту жизни
Дата/Год выпуска: 2007
Страна
: Россия
Жанр: торжество Православия
Продолжительность: 00:53:13
Перевод: Не требуется
Русские субтитры: нет
Оригинальная аудиодорожка: русский
Режиссер: А. Соловьёв
Описание: Беседа протоиерея Дмитрия Смирнова с врачами - акушерами , в фильме принимают участие :
Протоиерей Дмитрий Смирнов - сопредседатель Церковно-общественного совета по Биомедицинской этике,проректор Православного Свято-Тихоновского Богословского института,настоятель храмов свт. Митрофана Воронежского и Благовещения Пресвятой Богородицы в Петровском парке Москвы;
Роман Николаевич Гетманов - акушер-гинеколог Спасо-Перовского Госпиталя Мира и Милосердия г. Москвы, отец девяти детей;
Александр Викторович Чуев - депутат Государственной Думы РФ, заместитель председателя Комитета по делам общественных объединений и религиозных организаций ФС ГД РФ; автор законопроекта о запрете абортов по социальным показаниям.
качество: DVDRip
формат: AVI
Видео: MPEG4, XviD, 720x544 (4:3), 25.000 fps, 916 Kbps (0.094 bit/pixel)
Аудио: MP3, 48.0 KHz, 2 ch, 128 Kbps, CBR
Код: Выделить всё
General
Complete name                            : G:\Церковь в защиту жизни.avi
Format                                   : AVI
Format/Info                              : Audio Video Interleave
File size                                : 401 MiB
Duration                                 : 53mn 13s
Overall bit rate                         : 1 054 Kbps
Video
ID                                       : 0
Format                                   : MPEG-4 Visual
Format profile                           : Advanced Simple@L5
Format settings, BVOP                    : 2
Format settings, QPel                    : No
Format settings, GMC                     : No warppoints
Format settings, Matrix                  : Default (H.263)
Codec ID                                 : XVID
Codec ID/Hint                            : XviD
Duration                                 : 53mn 13s
Bit rate                                 : 916 Kbps
Width                                    : 720 pixels
Height                                   : 544 pixels
Display aspect ratio                     : 4:3
Frame rate                               : 25.000 fps
Color space                              : YUV
Chroma subsampling                       : 4:2:0
Bit depth                                : 8 bits
Scan type                                : Progressive
Compression mode                         : Lossy
Bits/(Pixel*Frame)                       : 0.094
Stream size                              : 349 MiB (87%)
Writing library                          : XviD 1.2.1 (UTC 2008-12-04)
Audio
ID                                       : 1
Format                                   : MPEG Audio
Format version                           : Version 1
Format profile                           : Layer 3
Mode                                     : Joint stereo
Mode extension                           : MS Stereo
Codec ID                                 : 55
Codec ID/Hint                            : MP3
Duration                                 : 53mn 13s
Bit rate mode                            : Constant
Bit rate                                 : 128 Kbps
Channel(s)                               : 2 channels
Sampling rate                            : 48.0 KHz
Compression mode                         : Lossy
Stream size                              : 48.7 MiB (12%)
Alignment                                : Aligned on interleaves
Interleave, duration                     : 40 ms (1.00 video frame)
Interleave, preload duration             : 504 ms
 
Не забывайте говорить Спасибо. Не уходите с раздачи!   
Торрент: Зарегистрирован [24 июн 2018, 21:24] Для скачивания .torrent
необходима регистрация
Или скачать с помощью
MediaGet
Статус:
Проверен
 
.torrent скачан: 0 раз
Хэш: 2d796223eef43d8a0f31b455378f0c56b59febf7
Размер: 401.12 МБ (420 601 542 байт)
Стать Автором раздачи
 
 
Раздал: 0 байт
Скачал: 0 байт
Ратио: Inf.
Сообщения: 487468
Зарегистрирован: 17 апр 2014, 13:57


  • Похожие торренты
    Ответы
    Просмотры
    Последнее сообщение

Вернуться в Вера и религия (видео)

Ресурс не предоставляет электронные версии произведений, а занимается лишь коллекционированием и каталогизацией ссылок, присылаемых и публикуемых на форуме нашими читателями. Если вы являетесь правообладателем какого-либо представленного материала и не желаете чтобы ссылка на него находилась в нашем каталоге, свяжитесь с нами и мы незамедлительно удалим её. Файлы для обмена на трекере предоставлены пользователями сайта, и администрация не несёт ответственности за их содержание. Просьба не заливать файлы, защищенные авторскими правами, а также файлы нелегального содержания!
cron