Деликатная серьезность / Delicate gravite (Филипп Андре / Philippe Andre) [2013, Франция, мелодрама, драма, короткий метр, DVB] DVO (SDI Media) + Original (Fra) + Sub (Rus)

 
 Статистика раздачи 
Размер: 399.29 МБ   |  Зарегистрирован: 24 июн 2018, 20:54   |   .torrent скачан: 0 раз
Сидеров: 1  [ 0 байт/сек ]     Личеров: 0  [ 0 байт/сек ]  
  

Деликатная серьезность / Delicate gravite (Филипп Андре / Philippe Andre) [2013, Франция, мелодрама, драма, короткий метр, DVB] DVO (SDI Media) + Original (Fra) + Sub (Rus)

Сообщение Nakazhu » 24 июн 2018, 20:54

Деликатная серьезность
Délicate gravité
#77Страна: Франция
Жанр: мелодрама, драма, короткий метр
Год выпуска: 2013
Продолжительность: 00:31:44
Перевод: Профессиональный (двухголосый заказровый) Компания "SDI Media Россия"
Субтитры: русские (перевод И. Безлюдной, Éclair Group)
Оригинальная аудиодорожка: французский
Режиссер: Филипп Андре / Philippe AndréВ ролях: Иван Аталь / Yvan Attal (Paul), Анн Парийо / Anne Parillaud (Claire)
Описание: На мобильник Поля приходит сообщение, что Клер очень расстроена и готова покончить жизнь самоубийством, она ждет его в отеле. Но Поль не знаком с Клер. Это сообщение пришло ему по ошибке. Тем не менее, он решает отправиться навстречу неизвестности…
Доп. информация: Intelsat 15 (85.0°E) Filmbox Arthouse DVB-S
Награды: включен в шорт-лист номинантов на премию "Оскар" 2014 от Франции в категрии "Лучший игровой короткометражный фильм"; 2 награды Palm Springs International ShortFest 2013 (Гран-при жюри, приз жюри); 2 награды Nevada City Film Festival 2013 (Гран-при, лучший иностранный фильм); приз зрительских симпатий за лучший фильм Bermuda International Film Festival 2014. Участник Short Film Corner - Cannes Film Festival 2013.
Качество видео: SATRip-AVC
Формат видео: MKV
Видео: AVC (H.264), 720x384 (1.85:1), 25 fps, ~1500 kbps avg, 0.217 bit/pixel
Аудио 1: MPEG Audio 2, 2 ch, 48 kHz, 128 kbps - русский
Аудио 2: MPEG Audio 2, 2 ch, 48 kHz, 128 kbps - французский
Формат субтитров: softsub (SRT)
Код: Выделить всё
General
Unique ID                                : 56357600777356950793663297642367937009 (0x2A66143F71E91C78DC5BE142B835E9F1)
Complete name                            : [apreder]MM_Delicate_gravite(2013)DVB.mkv
Format                                   : Matroska
Format version                           : Version 2
File size                                : 399 MiB
Duration                                 : 31 min 44 s
Overall bit rate                         : 1 759 kb/s
Movie name                               : Délicate gravité
Released date                            : 2013-05-15
Encoded date                             : UTC 2018-06-24 17:19:31
Writing application                      : mkvmerge v24.0.0 ('Beyond The Pale') 64-bit
Writing library                          : libebml v1.3.6 + libmatroska v1.4.9
Cover                                    : Yes
Attachments                              : cover.jpg / small_cover.jpg
ACTOR                                    :  Yvan Attal, Anne Parillaud
DIRECTOR                                 : Philippe Andre
GENRE                                    : Short, Drama, Romance
IMDB                                     : tt2849840
KEYWORDS                                 : rutracker.org
LAW_RATING                               : 16+
Video
ID                                       : 1
Format                                   : AVC
Format/Info                              : Advanced Video Codec
Format profile                           : High@L4.1
Format settings                          : CABAC / 16 Ref Frames
Format settings, CABAC                   : Yes
Format settings, RefFrames               : 16 frames
Codec ID                                 : V_MPEG4/ISO/AVC
Duration                                 : 31 min 44 s
Bit rate                                 : 1 500 kb/s
Width                                    : 720 pixels
Height                                   : 384 pixels
Display aspect ratio                     : 1.85:1
Frame rate mode                          : Constant
Frame rate                               : 25.000 FPS
Color space                              : YUV
Chroma subsampling                       : 4:2:0
Bit depth                                : 8 bits
Scan type                                : Progressive
Bits/(Pixel*Frame)                       : 0.217
Stream size                              : 333 MiB (83%)
Writing library                          : x264 core 155 r2901 7d0ff22
Encoding settings                        : cabac=1 / ref=16 / deblock=1:-1:-1 / analyse=0x3:0x133 / me=umh / subme=10 / psy=1 / psy_rd=1.00:0.15 / mixed_ref=1 / me_range=24 / chroma_me=1 / trellis=2 / 8x8dct=1 / cqm=0 / deadzone=21,11 / fast_pskip=1 / chroma_qp_offset=-3 / threads=12 / lookahead_threads=2 / sliced_threads=0 / nr=0 / decimate=1 / interlaced=0 / bluray_compat=0 / constrained_intra=0 / bframes=8 / b_pyramid=2 / b_adapt=2 / b_bias=0 / direct=3 / weightb=1 / open_gop=0 / weightp=2 / keyint=250 / keyint_min=25 / scenecut=40 / intra_refresh=0 / rc_lookahead=60 / rc=2pass / mbtree=1 / bitrate=1500 / ratetol=1.0 / qcomp=0.60 / qpmin=0 / qpmax=69 / qpstep=4 / cplxblur=20.0 / qblur=0.5 / vbv_maxrate=62500 / vbv_bufsize=78125 / nal_hrd=none / filler=0 / ip_ratio=1.40 / aq=1:1.00
Default                                  : Yes
Forced                                   : No
Audio #1
ID                                       : 2
Format                                   : MPEG Audio
Format version                           : Version 1
Format profile                           : Layer 2
Codec ID                                 : A_MPEG/L2
Codec ID/Hint                            : MP2
Duration                                 : 31 min 44 s
Bit rate mode                            : Constant
Bit rate                                 : 128 kb/s
Channel(s)                               : 2 channels
Sampling rate                            : 48.0 kHz
Compression mode                         : Lossy
Stream size                              : 29.1 MiB (7%)
Language                                 : Russian
Default                                  : Yes
Forced                                   : No
Audio #2
ID                                       : 3
Format                                   : MPEG Audio
Format version                           : Version 1
Format profile                           : Layer 2
Codec ID                                 : A_MPEG/L2
Codec ID/Hint                            : MP2
Duration                                 : 31 min 44 s
Bit rate mode                            : Constant
Bit rate                                 : 128 kb/s
Channel(s)                               : 2 channels
Sampling rate                            : 48.0 kHz
Compression mode                         : Lossy
Stream size                              : 29.1 MiB (7%)
Language                                 : French
Default                                  : No
Forced                                   : No
Text
ID                                       : 4
Format                                   : UTF-8
Codec ID                                 : S_TEXT/UTF8
Codec ID/Info                            : UTF-8 Plain Text
Language                                 : Russian
Default                                  : No
Forced                                   : No

[1'695]
 
Не забывайте говорить Спасибо. Не уходите с раздачи!   
Торрент: Зарегистрирован [24 июн 2018, 20:54] Для скачивания .torrent
необходима регистрация
Или скачать с помощью
MediaGet
Статус:
Проверен
 
.torrent скачан: 0 раз
Хэш: 932d47d4ceca25b6d37856e81870f3923412d73c
Размер: 399.29 МБ (418 681 007 байт)
Стать Автором раздачи
 
 
Раздал: 0 байт
Скачал: 0 байт
Ратио: Inf.
Сообщения: 487468
Зарегистрирован: 17 апр 2014, 13:57


  • Похожие торренты
    Ответы
    Просмотры
    Последнее сообщение

Вернуться в Короткий метр

Ресурс не предоставляет электронные версии произведений, а занимается лишь коллекционированием и каталогизацией ссылок, присылаемых и публикуемых на форуме нашими читателями. Если вы являетесь правообладателем какого-либо представленного материала и не желаете чтобы ссылка на него находилась в нашем каталоге, свяжитесь с нами и мы незамедлительно удалим её. Файлы для обмена на трекере предоставлены пользователями сайта, и администрация не несёт ответственности за их содержание. Просьба не заливать файлы, защищенные авторскими правами, а также файлы нелегального содержания!
cron