Православные святыни Сибири [2011, торжество Православия, TVRip]

 
 Статистика раздачи 
Размер: 455.02 МБ   |  Зарегистрирован: 24 июн 2018, 20:53   |   .torrent скачан: 0 раз
Сидеров: 1  [ 0 байт/сек ]     Личеров: 0  [ 0 байт/сек ]  
  

Православные святыни Сибири [2011, торжество Православия, TVRip]

Сообщение Nakazhu » 24 июн 2018, 20:53

Православные святыни Сибири
Дата/Год выпуска: 2011
Страна
: Россия
Жанр: торжество Православия
Продолжительность: 00:24:25
Перевод: Не требуется
Русские субтитры: нет
Оригинальная аудиодорожка: русский
Телеканал: RTG TV
Описание: Духовной столицей Сибири издавна считают Тобольск. Впервые сюда в 1583 году пришел со своей дружиной атаман Ермак. На месте острога теперь возвышается Тобольский кремль, как символ русского государства и православия в Сибири. Ежегодно в храм Тобольского кремля из Абалакского мужского монастыря крестным ходом переносят известный и почитаемый образ в Сибири икону Абалакской Божьей Матери. Зритель станет свидетелем этого события и узнает, почему икону считают чудотворной. А в иконописной школе при Тобольской духовной семинарии можно увидеть, как художники расписывают современные иконы. Фильм расскажет и о Тюменском Свято-Троицком соборе древнейшем каменном здании города. Там хранятся мощи чудотворца Филофея Лещинского, митрополита Сибирского и Тобольского, с именем которого связывают начало крещения. В фильме показаны монастыри Тобольско-Тюменской епархии: Свято-Знаменский Абалакский мужской монастырь, Иоанно-Введенский монастырь, Свято-Троицкий мужской монастырь; Тобольский кремль и крестный ход с Абалакской чудотворной иконой Божией Матери "Знамение"
качество: TVRip
формат: AVI
Видео: MPEG4, DivX 5, 720x576 (4:3), 25.000 fps, 2 400 Kbps (0.232 bit/pixel)
Аудио: MP3, 48.0 KHz, 2 ch, 192 Kbps, CBR
Код: Выделить всё
General
Complete name                            : G:\Православные святыни Сибири.avi
Format                                   : AVI
Format/Info                              : Audio Video Interleave
File size                                : 455 MiB
Duration                                 : 24mn 25s
Overall bit rate                         : 2 605 Kbps
Writing application                      : MEncoder SVN-r30881(20100311-gcc4.3.3)
Writing library                          : MPlayer
Video
ID                                       : 0
Format                                   : MPEG-4 Visual
Format profile                           : Simple@L1
Format settings, BVOP                    : No
Format settings, QPel                    : No
Format settings, GMC                     : No warppoints
Format settings, Matrix                  : Default (H.263)
Codec ID                                 : DX50
Codec ID/Hint                            : DivX 5
Duration                                 : 24mn 25s
Bit rate                                 : 2 400 Kbps
Width                                    : 720 pixels
Height                                   : 576 pixels
Display aspect ratio                     : 4:3
Frame rate                               : 25.000 fps
Standard                                 : PAL
Color space                              : YUV
Chroma subsampling                       : 4:2:0
Bit depth                                : 8 bits
Scan type                                : Progressive
Compression mode                         : Lossy
Bits/(Pixel*Frame)                       : 0.232
Stream size                              : 419 MiB (92%)
Writing library                          : Lavc52.58.0
Audio
ID                                       : 1
Format                                   : MPEG Audio
Format version                           : Version 1
Format profile                           : Layer 3
Mode                                     : Joint stereo
Mode extension                           : MS Stereo
Codec ID                                 : 55
Codec ID/Hint                            : MP3
Duration                                 : 24mn 25s
Bit rate mode                            : Constant
Bit rate                                 : 192 Kbps
Channel(s)                               : 2 channels
Sampling rate                            : 48.0 KHz
Compression mode                         : Lossy
Stream size                              : 33.5 MiB (7%)
Alignment                                : Aligned on interleaves
Interleave, duration                     : 24 ms (0.60 video frame)
Interleave, preload duration             : 504 ms
 
Не забывайте говорить Спасибо. Не уходите с раздачи!   
Торрент: Зарегистрирован [24 июн 2018, 20:53] Для скачивания .torrent
необходима регистрация
Или скачать с помощью
MediaGet
Статус:
Проверен
 
.torrent скачан: 0 раз
Хэш: 12461fe6a5abc8f6a9928a0f0d47d06574fe4a2a
Размер: 455.02 МБ (477 127 664 байт)
Стать Автором раздачи
 
 
Раздал: 0 байт
Скачал: 0 байт
Ратио: Inf.
Сообщения: 487468
Зарегистрирован: 17 апр 2014, 13:57


  • Похожие торренты
    Ответы
    Просмотры
    Последнее сообщение

Вернуться в Вера и религия (видео)

Ресурс не предоставляет электронные версии произведений, а занимается лишь коллекционированием и каталогизацией ссылок, присылаемых и публикуемых на форуме нашими читателями. Если вы являетесь правообладателем какого-либо представленного материала и не желаете чтобы ссылка на него находилась в нашем каталоге, свяжитесь с нами и мы незамедлительно удалим её. Файлы для обмена на трекере предоставлены пользователями сайта, и администрация не несёт ответственности за их содержание. Просьба не заливать файлы, защищенные авторскими правами, а также файлы нелегального содержания!
cron