Надежда (Валентина Матвеева) [2002, торжество Православия, DVDRip]

 
 Статистика раздачи 
Размер: 586.89 МБ   |  Зарегистрирован: 24 июн 2018, 20:24   |   .torrent скачан: 0 раз
Сидеров: 1  [ 0 байт/сек ]     Личеров: 0  [ 0 байт/сек ]  
  

Надежда (Валентина Матвеева) [2002, торжество Православия, DVDRip]

Сообщение Nakazhu » 24 июн 2018, 20:24

Надежда
Дата/Год выпуска: 2002
Страна
: Россия
Жанр: торжество Православия
Продолжительность: 00:38:24
Перевод: Не требуется
Русские субтитры: нет
Оригинальная аудиодорожка: русский
Режиссер: Валентина Матвеева
Описание: Фильм-исповедь человека, у которого было, казалось бы, все: достаток, деньги, машины, дома, бизнес... Но лишь испытав тяжкие скорби, главная героиня начала свой путь к истинной вере. Разные дороги приводят людей к Богу - об этом фильм режиссера Валентины Матвеевой, который завоевывал неоднократно призовые места кинофестивалей.
качество: DVDRip
формат: AVI
Видео: MPEG4, XviD, 720x550 (4:3), 25.000 fps, 1 995 Kbps (0.202 bit/pixel)
Аудио: MP3, 48.0 KHz, 2 ch, 128 Kbps, CBR
Код: Выделить всё
General
Complete name                            : G:\Надежда.avi
Format                                   : AVI
Format/Info                              : Audio Video Interleave
File size                                : 587 MiB
Duration                                 : 38mn 24s
Overall bit rate                         : 2 136 Kbps
Movie name                               : NEW.Title1.DVDRip
Director                                 : ПАЛКИН
Writing application                      : Lavf51.19.0
Original source form/Name                : NEW
Video
ID                                       : 0
Format                                   : MPEG-4 Visual
Format profile                           : Simple@L3
Format settings, BVOP                    : No
Format settings, QPel                    : No
Format settings, GMC                     : No warppoints
Format settings, Matrix                  : Default (H.263)
Codec ID                                 : XVID
Codec ID/Hint                            : XviD
Duration                                 : 38mn 24s
Bit rate                                 : 1 995 Kbps
Width                                    : 720 pixels
Height                                   : 550 pixels
Display aspect ratio                     : 4:3
Frame rate                               : 25.000 fps
Color space                              : YUV
Chroma subsampling                       : 4:2:0
Bit depth                                : 8 bits
Scan type                                : Progressive
Compression mode                         : Lossy
Bits/(Pixel*Frame)                       : 0.202
Stream size                              : 548 MiB (93%)
Writing library                          : XviD 1.1.2 (UTC 2006-11-01)
Audio
ID                                       : 1
Format                                   : MPEG Audio
Format version                           : Version 1
Format profile                           : Layer 3
Mode                                     : Joint stereo
Mode extension                           : MS Stereo
Codec ID                                 : 55
Codec ID/Hint                            : MP3
Duration                                 : 38mn 24s
Bit rate mode                            : Constant
Bit rate                                 : 128 Kbps
Channel(s)                               : 2 channels
Sampling rate                            : 48.0 KHz
Compression mode                         : Lossy
Stream size                              : 35.2 MiB (6%)
Alignment                                : Aligned on interleaves
Interleave, duration                     : 24 ms (0.60 video frame)
Writing library                          : LAME3.97
 
Не забывайте говорить Спасибо. Не уходите с раздачи!   
Торрент: Зарегистрирован [24 июн 2018, 20:24] Для скачивания .torrent
необходима регистрация
Или скачать с помощью
MediaGet
Статус:
Проверен
 
.torrent скачан: 0 раз
Хэш: 6c801eee7c6612a4fa0b680679e439385e1e7f46
Размер: 586.89 МБ (615 402 446 байт)
Стать Автором раздачи
 
 
Раздал: 0 байт
Скачал: 0 байт
Ратио: Inf.
Сообщения: 487468
Зарегистрирован: 17 апр 2014, 13:57


  • Похожие торренты
    Ответы
    Просмотры
    Последнее сообщение

Вернуться в Вера и религия (видео)

Ресурс не предоставляет электронные версии произведений, а занимается лишь коллекционированием и каталогизацией ссылок, присылаемых и публикуемых на форуме нашими читателями. Если вы являетесь правообладателем какого-либо представленного материала и не желаете чтобы ссылка на него находилась в нашем каталоге, свяжитесь с нами и мы незамедлительно удалим её. Файлы для обмена на трекере предоставлены пользователями сайта, и администрация не несёт ответственности за их содержание. Просьба не заливать файлы, защищенные авторскими правами, а также файлы нелегального содержания!
cron