Взрывная блондинка / Atomic Blonde (Дэвид Литч / David Leitch) [2017, Германия, Швеция, США, боевик, триллер, детектив, BDRip 720p] Dub (iTunes) + AVO (Вартан Дохалов) + AVO (Дмитрий Есарев) + AVO (Юрий Живов) + Sub Rus + Original Eng

 
 Статистика раздачи 
Размер: 8.46 ГБ   |  Зарегистрирован: 24 июн 2018, 20:07   |   .torrent скачан: 0 раз
Сидеров: 1  [ 0 байт/сек ]     Личеров: 0  [ 0 байт/сек ]  
  

Взрывная блондинка / Atomic Blonde (Дэвид Литч / David Leitch) [2017, Германия, Швеция, США, боевик, триллер, детектив, BDRip 720p] Dub (iTunes) + AVO (Вартан Дохалов) + AVO (Дмитрий Есарев) + AVO (Юрий Живов) + Sub Rus + Original Eng

Сообщение Nakazhu » 24 июн 2018, 20:07

Взрывная блондинка
Atomic Blonde
«Talents can be overrated»

Страна: Германия, Швеция, США
Жанр: боевик, триллер, детектив
Год выпуска: 2017
Продолжительность: 01:54:37
Перевод: Профессиональный (дублированный) iTunes
Перевод 2: Авторский (одноголосый закадровый) Вартан Дохалов
Перевод 3: Авторский (одноголосый закадровый) Дмитрий Есарев
Перевод 4: Авторский (одноголосый закадровый) Юрий Живов
Субтитры: русские (For,full),английские(full,SDH, forced)
Оригинальная аудиодорожка: английский
Режиссер: Дэвид Литч / David Leitch
В ролях: Шарлиз Терон , Джеймс МакЭвой, Эдди Марсан, Джон Гудман, Тоби Джонс, Джеймс Фолкнер, Роланд Мюллер, София Бутелла, Билл Скарсгард, Сэм Харгрейв, Йоуханнес Хёйкьюр Йоуханнессон, Тиль Швайгер.
Описание: Агент Лоррейн Бротон, бриллиант в короне Секретной разведывательной службы Ее Величества, не просто мастер шпионажа: она бомбически сексуальна, взрывоопасна и использует весь арсенал своих уникальных умений во время невыполнимых миссий. В неспокойном Берлине, куда ее направляют с заданием вернуть бесценное досье, она вынуждена объединиться с агентом под прикрытием Дэвидом Персивалем. Вместе им предстоит проложить путь через тернии смертельных шпионских игр.
| IMDb |
Тип релиза: BDRip 720p от TayTO
Контейнер: MKV
Видео: AVC, (High@L4.1) , 1280x536, 7520 kbps / 23,976 fps
Аудио: русский, AC3 , 5.1 / 48 kHz / 384 kbps - iTunes
Аудио 2: русский, AC3 , 5.1 / 48 kHz / 640 kbps - AVO Вартан Дохалов
Аудио 3: русский, AC3 , 5.1 / 48 kHz / 640 kbps - AVO Дмитрий Есарев
Аудио 4: русский, AC3 , 5.1 / 48 kHz / 640 kbps - AVO Юрий Живов
Аудио 5: английская, AC3 , 5.1 / 48 kHz / 640 kbps
Аудио 6: английский, AAC-LC 2ch @ 96 Kbps avg (Commentary with Director David Leitch and Editor Elísabet Ronaldsdóttir)
Формат субтитров: softsub (SRT)
Код:
Код: Выделить всё
General
Unique ID                   : 229451118800739549819822761024033683709 (0xAC9EAD947F7D43FE558DD916019C78FD)
Complete name               : I:\Atomic.Blonde.2017.REPACK.720p.4xRus.Eng-TayTO.mkv
Format                      : Matroska
Format version              : Version 4 / Version 2
File size                   : 8.46 GiB
Duration                    : 1 h 54 min
Overall bit rate            : 10.6 Mb/s
Movie name                  : Atomic Blonde 2017 REPACK 720p BluRay DD5.1 x264-TayTO
Encoded date                : UTC 2018-06-24 15:34:57
Writing application         : mkvmerge v24.0.0 ('Beyond The Pale') 64-bit
Writing library             : libebml v1.3.6 + libmatroska v1.4.9
Video
ID                          : 1
Format                      : AVC
Format/Info                 : Advanced Video Codec
Format profile              : High@L4.1
Format settings             : CABAC / 12 Ref Frames
Format settings, CABAC      : Yes
Format settings, ReFrames   : 12 frames
Codec ID                    : V_MPEG4/ISO/AVC
Duration                    : 1 h 54 min
Bit rate                    : 7 520 kb/s
Width                       : 1 280 pixels
Height                      : 536 pixels
Display aspect ratio        : 2.40:1
Frame rate mode             : Constant
Frame rate                  : 23.976 (24000/1001) FPS
Color space                 : YUV
Chroma subsampling          : 4:2:0
Bit depth                   : 8 bits
Scan type                   : Progressive
Bits/(Pixel*Frame)          : 0.457
Stream size                 : 6.02 GiB (71%)
Title                       : Atomic Blonde 2017 REPACK 720p BluRay DD5.1 x264-TayTO
Writing library             : x264 core 152 r2851+58 429492e t_mod_Custom [8-bit@all X86_64]
Encoding settings           : cabac=1 / ref=12 / deblock=1:-3:-3 / analyse=0x3:0x133 / me=umh / subme=11 / psy=1 / fade_compensate=0.00 / psy_rd=1.00:0.00 / mixed_ref=1 / me_range=32 / chroma_me=1 / trellis=2 / 8x8dct=1 / cqm=0 / deadzone=21,11 / fast_pskip=0 / chroma_qp_offset=-2 / threads=6 / lookahead_threads=1 / sliced_threads=0 / nr=0 / decimate=0 / interlaced=0 / bluray_compat=0 / constrained_intra=0 / fgo=0 / bframes=10 / b_pyramid=2 / b_adapt=2 / b_bias=0 / direct=3 / weightb=1 / open_gop=0 / weightp=2 / keyint=240 / keyint_min=23 / scenecut=40 / intra_refresh=0 / rc_lookahead=60 / rc=crf / mbtree=0 / crf=15.5000 / qcomp=0.65 / qpmin=0:0:0 / qpmax=69:69:69 / qpstep=4 / vbv_maxrate=62500 / vbv_bufsize=78125 / crf_max=0.0 / nal_hrd=none / filler=0 / ip_ratio=1.30 / pb_ratio=1.20 / aq=3:0.80 / aq-sensitivity=10.00 / aq-factor=1.00:1.00:1.00 / aq2=0 / aq3=0 / zones=412,427,crf=12.5/625,750,crf=12.5/3913,3927,crf=12.5/32588,32801,crf=12.5/32943,32980,crf=12.5/39494,39502,crf=12.5/53746,57925,crf=13.5/83038,83092,crf=12.5/83204,83453,crf=13.5/88029,88144,crf=12.5/116308,116448,crf=12.5/117011,117528,crf=12.5/118193,118484,crf=12.5
Language                    : English
Default                     : Yes
Forced                      : Yes
Color range                 : Limited
Color primaries             : BT.709
Transfer characteristics    : BT.709
Matrix coefficients         : BT.709
Audio #1
ID                          : 2
Format                      : AC-3
Format/Info                 : Audio Coding 3
Codec ID                    : A_AC3
Duration                    : 1 h 54 min
Bit rate mode               : Constant
Bit rate                    : 384 kb/s
Channel(s)                  : 6 channels
Channel positions           : Front: L C R, Side: L R, LFE
Sampling rate               : 48.0 kHz
Frame rate                  : 31.250 FPS (1536 SPF)
Bit depth                   : 16 bits
Compression mode            : Lossy
Stream size                 : 315 MiB (4%)
Title                       : Дубляж, iTunes
Language                    : Russian
Service kind                : Complete Main
Default                     : Yes
Forced                      : No
Audio #2
ID                          : 3
Format                      : AC-3
Format/Info                 : Audio Coding 3
Codec ID                    : A_AC3
Duration                    : 1 h 54 min
Bit rate mode               : Constant
Bit rate                    : 640 kb/s
Channel(s)                  : 6 channels
Channel positions           : Front: L C R, Side: L R, LFE
Sampling rate               : 48.0 kHz
Frame rate                  : 31.250 FPS (1536 SPF)
Bit depth                   : 16 bits
Compression mode            : Lossy
Stream size                 : 525 MiB (6%)
Title                       : AVO Вартан Дохалов
Language                    : Russian
Service kind                : Complete Main
Default                     : No
Forced                      : No
Audio #3
ID                          : 4
Format                      : AC-3
Format/Info                 : Audio Coding 3
Codec ID                    : A_AC3
Duration                    : 1 h 54 min
Bit rate mode               : Constant
Bit rate                    : 640 kb/s
Channel(s)                  : 6 channels
Channel positions           : Front: L C R, Side: L R, LFE
Sampling rate               : 48.0 kHz
Frame rate                  : 31.250 FPS (1536 SPF)
Bit depth                   : 16 bits
Compression mode            : Lossy
Stream size                 : 525 MiB (6%)
Title                       : AVO Дмитрий Есарев
Language                    : Russian
Service kind                : Complete Main
Default                     : No
Forced                      : No
Audio #4
ID                          : 5
Format                      : AC-3
Format/Info                 : Audio Coding 3
Codec ID                    : A_AC3
Duration                    : 1 h 54 min
Bit rate mode               : Constant
Bit rate                    : 640 kb/s
Channel(s)                  : 6 channels
Channel positions           : Front: L C R, Side: L R, LFE
Sampling rate               : 48.0 kHz
Frame rate                  : 31.250 FPS (1536 SPF)
Bit depth                   : 16 bits
Compression mode            : Lossy
Stream size                 : 525 MiB (6%)
Title                       : AVO Юрий Живов
Language                    : Russian
Service kind                : Complete Main
Default                     : No
Forced                      : No
Audio #5
ID                          : 6
Format                      : AC-3
Format/Info                 : Audio Coding 3
Codec ID                    : A_AC3
Duration                    : 1 h 54 min
Bit rate mode               : Constant
Bit rate                    : 640 kb/s
Channel(s)                  : 6 channels
Channel positions           : Front: L C R, Side: L R, LFE
Sampling rate               : 48.0 kHz
Frame rate                  : 31.250 FPS (1536 SPF)
Bit depth                   : 16 bits
Compression mode            : Lossy
Stream size                 : 525 MiB (6%)
Language                    : English
Service kind                : Complete Main
Default                     : No
Forced                      : No
Audio #6
ID                          : 7
Format                      : AAC
Format/Info                 : Advanced Audio Codec
Format profile              : LC
Codec ID                    : A_AAC-2
Duration                    : 1 h 54 min
Bit rate                    : 96.0 kb/s
Channel(s)                  : 2 channels
Channel positions           : Front: L R
Sampling rate               : 48.0 kHz
Frame rate                  : 46.875 FPS (1024 SPF)
Compression mode            : Lossy
Stream size                 : 78.8 MiB (1%)
Title                       : Feature Commentary with Director David Leitch and Editor Elísabet Ronaldsdóttir
Language                    : English
Default                     : No
Forced                      : No
Text #1
ID                          : 8
Format                      : UTF-8
Codec ID                    : S_TEXT/UTF8
Codec ID/Info               : UTF-8 Plain Text
Duration                    : 1 h 47 min
Bit rate                    : 2 b/s
Count of elements           : 42
Stream size                 : 1.64 KiB (0%)
Title                       : Forced
Language                    : Russian
Default                     : Yes
Forced                      : Yes
Text #2
ID                          : 9
Format                      : UTF-8
Codec ID                    : S_TEXT/UTF8
Codec ID/Info               : UTF-8 Plain Text
Duration                    : 1 h 47 min
Bit rate                    : 63 b/s
Count of elements           : 1083
Stream size                 : 50.5 KiB (0%)
Language                    : Russian
Default                     : No
Forced                      : No
Text #3
ID                          : 10
Format                      : UTF-8
Codec ID                    : S_TEXT/UTF8
Codec ID/Info               : UTF-8 Plain Text
Duration                    : 1 h 47 min
Bit rate                    : 40 b/s
Count of elements           : 991
Stream size                 : 31.9 KiB (0%)
Language                    : English
Default                     : No
Forced                      : No
Text #4
ID                          : 11
Format                      : UTF-8
Codec ID                    : S_TEXT/UTF8
Codec ID/Info               : UTF-8 Plain Text
Duration                    : 1 h 47 min
Bit rate                    : 47 b/s
Count of elements           : 1248
Stream size                 : 37.2 KiB (0%)
Title                       : SDH
Language                    : English
Default                     : No
Forced                      : No
Text #5
ID                          : 12
Format                      : UTF-8
Codec ID                    : S_TEXT/UTF8
Codec ID/Info               : UTF-8 Plain Text
Duration                    : 1 h 33 min
Bit rate                    : 2 b/s
Count of elements           : 79
Stream size                 : 1.92 KiB (0%)
Title                       : Forced
Language                    : English
Default                     : No
Forced                      : No
Menu
00:00:00.000                : en:Chapter 01
00:06:47.158                : en:Chapter 02
00:11:02.330                : en:Chapter 03
00:18:16.389                : en:Chapter 04
00:24:14.747                : en:Chapter 05
00:27:46.333                : en:Chapter 06
00:32:49.177                : en:Chapter 07
00:36:19.262                : en:Chapter 08
00:40:45.320                : en:Chapter 09
00:47:54.832                : en:Chapter 10
00:53:12.649                : en:Chapter 11
00:59:53.258                : en:Chapter 12
01:03:31.935                : en:Chapter 13
01:08:02.956                : en:Chapter 14
01:10:51.582                : en:Chapter 15
01:18:26.620                : en:Chapter 16
01:24:27.439                : en:Chapter 17
01:32:43.435                : en:Chapter 18
01:42:05.413                : en:Chapter 19
01:48:20.245                : en:Chapter 20
01:54:43.211                : en:Chapter 21

Код:
Код: Выделить всё
Замена энкода с hardcoded subtitles на энкод без них







 
Не забывайте говорить Спасибо. Не уходите с раздачи!   
Торрент: Зарегистрирован [24 июн 2018, 20:07] Для скачивания .torrent
необходима регистрация
Или скачать с помощью
MediaGet
Статус:
Проверен
 
.torrent скачан: 0 раз
Хэш: df9c0212bdbcb7db9aab69cf1d369213c4bd317d
Размер: 8.46 ГБ (9 083 596 575 байт)
Стать Автором раздачи
 
 
Раздал: 0 байт
Скачал: 0 байт
Ратио: Inf.
Сообщения: 487468
Зарегистрирован: 17 апр 2014, 13:57


  • Похожие торренты
    Ответы
    Просмотры
    Последнее сообщение

Вернуться в HD Video на модерации

Ресурс не предоставляет электронные версии произведений, а занимается лишь коллекционированием и каталогизацией ссылок, присылаемых и публикуемых на форуме нашими читателями. Если вы являетесь правообладателем какого-либо представленного материала и не желаете чтобы ссылка на него находилась в нашем каталоге, свяжитесь с нами и мы незамедлительно удалим её. Файлы для обмена на трекере предоставлены пользователями сайта, и администрация не несёт ответственности за их содержание. Просьба не заливать файлы, защищенные авторскими правами, а также файлы нелегального содержания!
cron