Выпускной бал в Кремле 2018.06.23 [2018, Pop, DVB]

 
 Статистика раздачи 
Размер: 3.08 ГБ   |  Зарегистрирован: 24 июн 2018, 19:37   |   .torrent скачан: 0 раз
Сидеров: 1  [ 0 байт/сек ]     Личеров: 0  [ 0 байт/сек ]  
  

Выпускной бал в Кремле 2018.06.23 [2018, Pop, DVB]

Сообщение Nakazhu » 24 июн 2018, 19:37

Выпускной бал в Кремле 2018.06.23
Страна: Россия
Жанр: Pop
Продолжительность: 02:55:00
Год выпуска: 2018
Описание: "Выпускник - 2018" в Кремле! Красная ковровая дорожка, вручение заветных статуэток. Ты узнаешь, кто станет принцем и принцессой главного выпускного страны!
Треклист:
Источник: собственный рип
Качество: DVB
Контейнер: TS
Видео кодек: H.264
Аудио кодек: MP2
Видео: AVC, 720x576 @ 784x576, (4:3), 25.00fps, 2 138 kb/s
Аудио: MPEG Audio, 48000Hz, 2 channels, 256 Кбит/сек
General
ID : 1 (0x1)
Complete name : L:\1_ИСХОЛНИКИ\Выпускной бал в Кремле 2018.06.23.ts
Format : MPEG-TS
File size : 3.08 GiB
Duration : 2 h 55 min
Overall bit rate mode : Variable
Overall bit rate : 2 521 kb/s
Video
ID : 3432 (0xD68)
Menu ID : 3431 (0xD67)
Format : AVC
Format/Info : Advanced Video Codec
Format profile : High@L3
Format settings : CABAC / 3 Ref Frames
Format settings, CABAC : Yes
Format settings, RefFrames : 3 frames
Codec ID : 27
Duration : 2 h 55 min
Bit rate : 2 138 kb/s
Width : 720 pixels
Height : 576 pixels
Display aspect ratio : 4:3
Frame rate : 25.000 FPS
Standard : Component
Color space : YUV
Chroma subsampling : 4:2:0
Bit depth : 8 bits
Scan type : Interlaced
Scan type, store method : Separated fields
Scan order : Top Field First
Bits/(Pixel*Frame) : 0.206
Stream size : 2.62 GiB (85%)
Color range : Limited
Color primaries : BT.601 PAL
Transfer characteristics : BT.470 System B, BT.470 System G
Matrix coefficients : BT.470 System B, BT.470 System G
Audio
ID : 3435 (0xD6B)
Menu ID : 3431 (0xD67)
Format : MPEG Audio
Format version : Version 1
Format profile : Layer 2
Codec ID : 3
Duration : 2 h 55 min
Bit rate mode : Constant
Bit rate : 256 kb/s
Channel(s) : 2 channels
Sampling rate : 48.0 kHz
Compression mode : Lossy
Delay relative to video : -120 ms
Stream size : 321 MiB (10%)
Language : English
 
Не забывайте говорить Спасибо. Не уходите с раздачи!   
Торрент: Зарегистрирован [24 июн 2018, 19:37] Скачать торрент
Скачать торрент
[ Размер 15.9 КБ / Просмотров 4 ]
Статус:
Проверен
 
.torrent скачан: 0 раз
Хэш: acf1938e087a19f2900e889993b735cfbdcf6425
Размер: 3.08 ГБ (3 311 934 712 байт)
Стать Автором раздачи
 
 
Раздал: 0 байт
Скачал: 0 байт
Ратио: Inf.
Сообщения: 487468
Зарегистрирован: 17 апр 2014, 13:57


  • Похожие торренты
    Ответы
    Просмотры
    Последнее сообщение

Вернуться в Отечественная поп-музыка (Видео)

Ресурс не предоставляет электронные версии произведений, а занимается лишь коллекционированием и каталогизацией ссылок, присылаемых и публикуемых на форуме нашими читателями. Если вы являетесь правообладателем какого-либо представленного материала и не желаете чтобы ссылка на него находилась в нашем каталоге, свяжитесь с нами и мы незамедлительно удалим её. Файлы для обмена на трекере предоставлены пользователями сайта, и администрация не несёт ответственности за их содержание. Просьба не заливать файлы, защищенные авторскими правами, а также файлы нелегального содержания!
cron