Весьегонская волчица (2004) DVDRip-AVC от KORSAR

 
 Статистика раздачи 
Размер: 1.82 ГБ   |  Зарегистрирован: 23 июн 2018, 19:18   |   .torrent скачан: 0 раз
Сидеров: 1  [ 0 байт/сек ]     Личеров: 0  [ 0 байт/сек ]  
  

Весьегонская волчица (2004) DVDRip-AVC от KORSAR

Сообщение graf_t » 23 июн 2018, 19:18

Весьегонская волчица


Страна: Россия
Жанр: Драма, приключения
Год выпуска: 2004
Продолжительность: 01:41:03
Перевод: Не требуется
Режиссер: Николай Соловцов
В ролях: Олег Фомин, Елена Дробышева, Владимир Гостюхин, Лев Дуров, Лев Борисов, Ирина Савина, Александр Тютин, Наталья Казначеева

Описание: Герой фильма Егор - потомственный охотник-волчатник. Он жил среди природы, как жили его дед и прадеды: растил дочь, любил лес, охотился, отстреливал волков. Но вдруг его жизнь пересекается с жизнью необыкновенной волчицы. История, которая произошла между Егором и вожаком стаи - умной, опытной, а потому крайне опасной волчицей, и стала сюжетом фильма. Человеку и зверю придётся пройти через множество испытаний, которые изменят их.
Месть, ненависть, любовь, предательство, стремление понять друг друга и невозможность договориться - все эти чувства переживут вместе с главными героями и жители небольшой российской деревушки, где происходит действие фильма.



Кодек: х264
Качество: DVDRip-AVC
Видео: MPEG-4 AVC, 716х450@764x450, 25 fps, 2350 Кбит/с
Аудио: АС3, 2 сh, 224 Кбит/с
Субтитры: Нет
Главы: Есть


x264 [info]: frame I:966 Avg QP:17.37 size: 80447
x264 [info]: frame P:37180 Avg QP:19.88 size: 27446
x264 [info]: frame B:113432 Avg QP:21.45 size: 6021

Общее
Уникальный идентификатор : 245369837906865239166832400653063372410 (0xB89883071F4DE6029296954C87DD3E7A)
Полное имя : I:Наше современное киноВесьегонская волчица 2004_DVDRip-AVC_KORSAR.mkv
Формат : Matroska
Версия формата : Version 2
Размер файла : 1,82 Гбайт
Продолжительность : 1 ч. 41 м.
Общий поток : 2576 Кбит/сек
Название фильма : mister.hats
Дата кодирования : UTC 2018-06-22 16:28:29
Программа кодирования : mkvmerge v5.8.0 ('No Sleep / Pillow') built on Sep 2 2012 15:37:04
Библиотека кодирования : libebml v1.2.3 + libmatroska v1.3.0

Видео
Идентификатор : 1
Формат : AVC
Формат/Информация : Advanced Video Codec
Профиль формата : High@L4.1
Настройки формата : CABAC / 14 Ref Frames
Параметр CABAC формата : Да
Параметр RefFrames формата : 14 кадров
Идентификатор кодека : V_MPEG4/ISO/AVC
Продолжительность : 1 ч. 41 м.
Битрейт : 2350 Кбит/сек
Ширина : 716 пикселей
Высота : 450 пикселей
Соотношение сторон : 5:3
Соотношение сторон в оригинале : 5:3
Режим частоты кадров : Постоянный
Частота кадров : 25,000 кадров/сек
Цветовое пространство : YUV
Субдискретизация насыщенности : 4:2:0
Битовая глубина : 8 бит
Тип развёртки : Прогрессивная
Бит/(Пиксели*Кадры) : 0.292
Размер потока : 1,62 Гбайт (89%)
Библиотека кодирования : x264 core 152 r2851kMod ba24899
Настройки программы : cabac=1 / ref=14 / deblock=1:-2:-1 / analyse=0x3:0x133 / me=umh / subme=11 / psy=1 / fade_compensate=0.00 / psy_rd=1.05:0.12 / mixed_ref=1 / me_range=48 / chroma_me=1 / trellis=2 / 8x8dct=1 / cqm=0 / deadzone=21,11 / fast_pskip=0 / chroma_qp_offset=-3 / threads=12 / lookahead_threads=3 / sliced_threads=0 / nr=0 / decimate=0 / interlaced=0 / bluray_compat=0 / constrained_intra=0 / bframes=10 / b_pyramid=2 / b_adapt=2 / b_bias=0 / direct=3 / weightb=1 / open_gop=0 / weightp=2 / keyint=250 / keyint_min=25 / scenecut=40 / intra_refresh=0 / rc_lookahead=40 / rc=2pass / mbtree=0 / bitrate=2350 / ratetol=1.0 / qcomp=0.60 / qpmin=0 / qpmax=39 / qpstep=4 / cplxblur=20.0 / qblur=0.5 / vbv_maxrate=50000 / vbv_bufsize=62500 / nal_hrd=none / filler=0 / ip_ratio=1.25 / pb_ratio=1.30 / aq=1:1.00
Язык : English
Default : Да
Forced : Нет
Цветовой диапазон : Limited
Основные цвета : BT.601 PAL
Характеристики трансфера : BT.470 System B, BT.470 System G
Коэффициенты матрицы : BT.470 System B, BT.470 System G

Аудио
Идентификатор : 2
Формат : AC-3
Формат/Информация : Audio Coding 3
Параметр Endianness формата : Big
Идентификатор кодека : A_AC3
Продолжительность : 1 ч. 41 м.
Вид битрейта : Постоянный
Битрейт : 224 Кбит/сек
Каналы : 2 канала
Расположение каналов : Front: L R
Частота : 48,0 КГц
Частота кадров : 31,250 кадров/сек (1536 SPF)
Битовая глубина : 16 бит
Метод сжатия : С потерями
Размер потока : 162 Мбайт (9%)
Язык : Russian
Default : Да
Forced : Нет

Меню
00:00:00.000 : en:Chapter 1
00:04:58.520 : en:Chapter 2
00:10:18.440 : en:Chapter 3
00:16:26.040 : en:Chapter 4
00:23:14.440 : en:Chapter 5
00:32:25.320 : en:Chapter 6
00:41:06.440 : en:Chapter 7
00:52:22.120 : en:Chapter 8
01:04:01.760 : en:Chapter 9
01:19:41.440 : en:Chapter 10
01:28:52.600 : en:Chapter 11
01:38:56.280 : en:Chapter 12




 
Не забывайте говорить Спасибо. Не уходите с раздачи!   
Торрент: Зарегистрирован [23 июн 2018, 19:18] Для скачивания .torrent
необходима регистрация
Или скачать с помощью
MediaGet
Статус:
Проверен
 
.torrent скачан: 0 раз
Хэш: 1fbb22edc048e0e11869b21bf759707ad2ae5be4
Размер: 1.82 ГБ (1 952 258 511 байт)
Стать Автором раздачи
 
 
Раздал: 100 ГБ
Скачал: 0 байт
Ратио: Seed.
Сообщения: 55282
Зарегистрирован: 31 мар 2015, 18:04


  • Похожие торренты
    Ответы
    Просмотры
    Последнее сообщение

Вернуться в Отечественные фильмы 2001-2005 года

Ресурс не предоставляет электронные версии произведений, а занимается лишь коллекционированием и каталогизацией ссылок, присылаемых и публикуемых на форуме нашими читателями. Если вы являетесь правообладателем какого-либо представленного материала и не желаете чтобы ссылка на него находилась в нашем каталоге, свяжитесь с нами и мы незамедлительно удалим её. Файлы для обмена на трекере предоставлены пользователями сайта, и администрация не несёт ответственности за их содержание. Просьба не заливать файлы, защищенные авторскими правами, а также файлы нелегального содержания!
cron