(Hip-Hop) [2хCD] VA - Chilled Hip-Hop (Ministry Of Sound |MOSA237) - 2016, FLAC (tracks+.cue), lossless

 
 Статистика раздачи 
Размер: 1.01 ГБ   |  Зарегистрирован: 22 июн 2018, 22:25   |   .torrent скачан: 0 раз
Сидеров: 1  [ 0 байт/сек ]     Личеров: 0  [ 0 байт/сек ]  
  

(Hip-Hop) [2хCD] VA - Chilled Hip-Hop (Ministry Of Sound |MOSA237) - 2016, FLAC (tracks+.cue), lossless

Сообщение Nakazhu » 22 июн 2018, 22:25

VA / Chilled Hip-Hop
Жанр: Hip-Hop
Носитель: CD
Страна-производитель диска (релиза): Australia
Год издания: 2016
Издатель (лейбл): Ministry Of Sound
Номер по каталогу: MOSA237
Аудиокодек: FLAC (*.flac)
Тип рипа: tracks+.cue
Битрейт аудио: lossless
Продолжительность: 02:32:03
Источник (релизер): Собственный рип jpc.de
Наличие сканов в содержимом раздачи: да
#77


01. Wu-Tang Clan - C.R.E.A.M. (4:03)
02. Cypress Hill - Insane In The Brain (3:27)
03. A Tribe Called Quest - Can I Kick It? (4:04)
04. The Pharcyde - Passin' Me By (3:53)
05. KRS One - Mc's Act Like They Don't Know (4:47)
06. Skee-Lo - I Wish (3:49)
07. Common - I Used To Love H.E.R. (4:33)
08. Black Moon - How Many Mc's (2:40)
09. Q-Tip - Let's Ride (4:03)
10. Warren G feat. Nate Dogg - Regulate (4:01)
11. Smif-N Wessun - Wreckonize (3:20)
12. Arrested Development - People Everyday (Metamorphosis Mix) (3:23)
13. Eric B & Rakim - Paid In Full (3:43)
14. Onyx - Slam (3:35)
15. Ugly Duckling - A Little Samba (3:11)
16. Bomb The Bass feat. Justin Warfield - Bug Powder Dust (La Fun Mob Remix) (5:15)
17. Rakim - When I Be On Tha Mic (3:41)
18. Cam'Ron feat. Juelz Santana - Oh Boy (3:25)
19. Goodie Mob - Cell Therapy (4:48)
20. J Dilla - So Far To Go feat. Common & D'Angelo (2:48)
#77


01. Xzibit - Paparazzi (3:51)
02. The Pharcyde - Runnin' (3:07)
03. Big L - Put It On (3:34)
04. Mobb Deep - Shook Ones, Pt. II (5:20)
05. Joey Dada$$ - Paper Trail$ (3:14)
06. Epmd - Da Joint (3:18)
07. Gza feat. Method Man - Shadowboxin (3:31)
08. Redman - Tonight's Da Night (3:22)
09. Deadprez - Hip Hop (3:41)
10. Outkast - Ms Jackson (3:34)
11. DJ Jazzy Jeff & The Fresh Prince - Summertime (4:22)
12. LL Cool J - Doin' It (3:43)
13. Ludacris feat. Nate Dogg - Area Codes (3:43)
14. Nelly feat. City Spud - Ride Wit Me (4:45)
15. A$ap Rocky - Excuse Me (3:56)
16. Bishop Nehru - You Stressin' (2:42)
17. Childish Gambino - Sweatpants (2:33)
18. The Weeknd - Hills (3:52)
19. Jay Z - Song Cry (5:00)
20. Salt-N Pepa - Push It (4:24)
Код: Выделить всё
Exact Audio Copy V1.1 from 23. June 2015
EAC extraction logfile from 20. June 2018, 23:29
Various  / Chilled (Ministry Of Sound) CD1
Used drive  : ASUS    DRW-24D5MT   Adapter: 1  ID: 0
Read mode               : Secure
Utilize accurate stream : Yes
Defeat audio cache      : Yes
Make use of C2 pointers : No
Read offset correction                      : 6
Overread into Lead-In and Lead-Out          : No
Fill up missing offset samples with silence : Yes
Delete leading and trailing silent blocks   : No
Null samples used in CRC calculations       : Yes
Used interface                              : Native Win32 interface for Win NT & 2000
Gap handling                                : Appended to previous track
Used output format              : User Defined Encoder
Selected bitrate                : 768 kBit/s
Quality                         : High
Add ID3 tag                     : No
Command line compressor         : F:\Программы\Exact Audio Copy\FLAC\FLAC.EXE
Additional command line options : -6 -V -T "ARTIST=%artist%" -T "TITLE=%title%" -T "ALBUM=%albumtitle%" -T "DATE=%year%" -T "TRACKNUMBER=%tracknr%" -T "GENRE=%genre%" -T "COMMENT=Ripped by grandsrt8" -T "BAND=%albuminterpret%" -T "ALBUMARTIST=%albuminterpret%" -T "COMPOSER=%composer%" %haslyrics%--tag-from-file=LYRICS="%lyricsfile%"%haslyrics% -T "DISCNUMBER=%cdnumber%" -T "TOTALDISCS=%totalcds%" -T "TOTALTRACKS=%numtracks%" %hascover%--picture="%coverfile%"%hascover% %source% -o %dest%
TOC of the extracted CD
     Track |   Start  |  Length  | Start sector | End sector
    ---------------------------------------------------------
        1  |  0:00.00 |  4:03.08 |         0    |    18232
        2  |  4:03.08 |  3:27.03 |     18233    |    33760
        3  |  7:30.11 |  4:03.62 |     33761    |    52047
        4  | 11:33.73 |  3:53.00 |     52048    |    69522
        5  | 15:26.73 |  4:47.30 |     69523    |    91077
        6  | 20:14.28 |  3:49.07 |     91078    |   108259
        7  | 24:03.35 |  4:33.09 |    108260    |   128743
        8  | 28:36.44 |  2:40.11 |    128744    |   140754
        9  | 31:16.55 |  4:03.12 |    140755    |   158991
       10  | 35:19.67 |  4:01.26 |    158992    |   177092
       11  | 39:21.18 |  3:20.11 |    177093    |   192103
       12  | 42:41.29 |  3:22.64 |    192104    |   207317
       13  | 46:04.18 |  3:43.25 |    207318    |   224067
       14  | 49:47.43 |  3:34.57 |    224068    |   240174
       15  | 53:22.25 |  3:11.30 |    240175    |   254529
       16  | 56:33.55 |  5:14.41 |    254530    |   278120
       17  | 61:48.21 |  3:40.65 |    278121    |   294685
       18  | 65:29.11 |  3:24.61 |    294686    |   310046
       19  | 68:53.72 |  4:47.73 |    310047    |   331644
       20  | 73:41.70 |  2:47.64 |    331645    |   344233
Track  1
     Filename F:\Rips grandsrt8\01. Wu-Tang Clan - C.R.E.A.M..wav
     Pre-gap length  0:00:02.00
     Peak level 99.4 %
     Extraction speed 3.9 X
     Track quality 100.0 %
     Test CRC 5DC144D0
     Copy CRC 5DC144D0
     Accurately ripped (confidence 1)  [28CCC432]  (AR v2)
     Copy OK
Track  2
     Filename F:\Rips grandsrt8\02. Cypress Hill - Insane In The Brain.wav
     Peak level 99.4 %
     Extraction speed 3.8 X
     Track quality 100.0 %
     Test CRC 3C901CC5
     Copy CRC 3C901CC5
     Accurately ripped (confidence 1)  [23F254F3]  (AR v2)
     Copy OK
Track  3
     Filename F:\Rips grandsrt8\03. A Tribe Called Quest - Can I Kick It.wav
     Peak level 99.4 %
     Extraction speed 4.3 X
     Track quality 100.0 %
     Test CRC CDDE7599
     Copy CRC CDDE7599
     Accurately ripped (confidence 1)  [11C3E8E1]  (AR v2)
     Copy OK
Track  4
     Filename F:\Rips grandsrt8\04. The Pharcyde - Passin' Me By.wav
     Peak level 99.4 %
     Extraction speed 4.5 X
     Track quality 100.0 %
     Test CRC 34E74D8A
     Copy CRC 34E74D8A
     Accurately ripped (confidence 1)  [DB2E2F9B]  (AR v2)
     Copy OK
Track  5
     Filename F:\Rips grandsrt8\05. KRS One - Mc's Act Like They Don't Know.wav
     Peak level 99.4 %
     Extraction speed 5.0 X
     Track quality 100.0 %
     Test CRC 6D25A394
     Copy CRC 6D25A394
     Accurately ripped (confidence 1)  [81734E3D]  (AR v2)
     Copy OK
Track  6
     Filename F:\Rips grandsrt8\06. Skee-Lo -  I Wish.wav
     Peak level 99.4 %
     Extraction speed 3.7 X
     Track quality 99.9 %
     Test CRC 19E5A8F6
     Copy CRC 19E5A8F6
     Accurately ripped (confidence 1)  [71F3A9BF]  (AR v2)
     Copy OK
Track  7
     Filename F:\Rips grandsrt8\07. Common -  I Used To Love H.E.R..wav
     Peak level 99.4 %
     Extraction speed 5.4 X
     Track quality 100.0 %
     Test CRC BB09D07F
     Copy CRC BB09D07F
     Accurately ripped (confidence 1)  [DFEF03D1]  (AR v2)
     Copy OK
Track  8
     Filename F:\Rips grandsrt8\08. Black Moon - How Many Mc's.wav
     Peak level 99.4 %
     Extraction speed 4.6 X
     Track quality 100.0 %
     Test CRC 1736E494
     Copy CRC 1736E494
     Accurately ripped (confidence 1)  [6F6CD671]  (AR v2)
     Copy OK
Track  9
     Filename F:\Rips grandsrt8\09. Q-Tip - Let's Ride.wav
     Peak level 99.4 %
     Extraction speed 5.6 X
     Track quality 100.0 %
     Test CRC D9A6C16D
     Copy CRC D9A6C16D
     Accurately ripped (confidence 1)  [F8B62E90]  (AR v2)
     Copy OK
Track 10
     Filename F:\Rips grandsrt8\10. Warren G feat. Nate Dogg - Regulate.wav
     Peak level 99.4 %
     Extraction speed 3.4 X
     Track quality 99.9 %
     Test CRC 7A4A1AB7
     Copy CRC 7A4A1AB7
     Accurately ripped (confidence 1)  [C078AB27]  (AR v2)
     Copy OK
Track 11
     Filename F:\Rips grandsrt8\11. Smif-N Wessun - Wreckonize.wav
     Peak level 99.4 %
     Extraction speed 3.1 X
     Track quality 99.9 %
     Test CRC 767E3FD3
     Copy CRC 767E3FD3
     Accurately ripped (confidence 1)  [41604234]  (AR v2)
     Copy OK
Track 12
     Filename F:\Rips grandsrt8\12. Arrested Development - People Everyday (Metamorphosis Mix).wav
     Peak level 99.4 %
     Extraction speed 2.4 X
     Track quality 99.9 %
     Test CRC 2C286415
     Copy CRC 2C286415
     Accurately ripped (confidence 1)  [70D84B1D]  (AR v2)
     Copy OK
Track 13
     Filename F:\Rips grandsrt8\13. Eric B & Rakim - Paid In Full.wav
     Peak level 99.4 %
     Extraction speed 3.5 X
     Track quality 100.0 %
     Test CRC 0E265678
     Copy CRC 0E265678
     Accurately ripped (confidence 1)  [18E0B5E8]  (AR v2)
     Copy OK
Track 14
     Filename F:\Rips grandsrt8\14. Onyx - Slam.wav
     Peak level 99.4 %
     Extraction speed 2.6 X
     Track quality 99.9 %
     Test CRC 499BDDA3
     Copy CRC 499BDDA3
     Accurately ripped (confidence 1)  [231ADB56]  (AR v2)
     Copy OK
Track 15
     Filename F:\Rips grandsrt8\15. Ugly Duckling - A Little Samba.wav
     Peak level 99.4 %
     Extraction speed 3.6 X
     Track quality 100.0 %
     Test CRC C68F751E
     Copy CRC C68F751E
     Accurately ripped (confidence 1)  [B1EF09C4]  (AR v2)
     Copy OK
Track 16
     Filename F:\Rips grandsrt8\16. Bomb The Bass feat. Justin Warfield - Bug Powder Dust (La Fun Mob Remix).wav
     Peak level 99.4 %
     Extraction speed 4.0 X
     Track quality 100.0 %
     Test CRC A42F91F3
     Copy CRC A42F91F3
     Accurately ripped (confidence 1)  [86EC1B40]  (AR v2)
     Copy OK
Track 17
     Filename F:\Rips grandsrt8\17. Rakim - When I Be On Tha Mic.wav
     Peak level 99.4 %
     Extraction speed 3.9 X
     Track quality 100.0 %
     Test CRC 4DF7DEEE
     Copy CRC 4DF7DEEE
     Accurately ripped (confidence 1)  [078012CB]  (AR v2)
     Copy OK
Track 18
     Filename F:\Rips grandsrt8\18. Cam'Ron feat. Juelz Santana - Oh Boy.wav
     Peak level 99.4 %
     Extraction speed 2.8 X
     Track quality 99.9 %
     Test CRC 05AF70E2
     Copy CRC 05AF70E2
     Accurately ripped (confidence 1)  [8F25BEDD]  (AR v2)
     Copy OK
Track 19
     Filename F:\Rips grandsrt8\19. Goodie Mob - Cell Therapy.wav
     Peak level 99.4 %
     Extraction speed 4.2 X
     Track quality 100.0 %
     Test CRC 3CA21FA7
     Copy CRC 3CA21FA7
     Accurately ripped (confidence 1)  [EAAD0D58]  (AR v2)
     Copy OK
Track 20
     Filename F:\Rips grandsrt8\20. J Dilla - So Far To Go feat. Common & D'Angelo.wav
     Peak level 99.4 %
     Extraction speed 3.9 X
     Track quality 100.0 %
     Test CRC 9B52E971
     Copy CRC 9B52E971
     Accurately ripped (confidence 1)  [75953D22]  (AR v2)
     Copy OK
All tracks accurately ripped
No errors occurred
End of status report
---- CUETools DB Plugin V2.1.6
[CTDB TOCID: JAWvAX19RsSAZiC1b1XEd49so1k-] found
Submit result: JAWvAX19RsSAZiC1b1XEd49so1k- has been confirmed
Track | CTDB Status
  1   | (1/1) Accurately ripped
  2   | (1/1) Accurately ripped
  3   | (1/1) Accurately ripped
  4   | (1/1) Accurately ripped
  5   | (1/1) Accurately ripped
  6   | (1/1) Accurately ripped
  7   | (1/1) Accurately ripped
  8   | (1/1) Accurately ripped
  9   | (1/1) Accurately ripped
 10   | (1/1) Accurately ripped
 11   | (1/1) Accurately ripped
 12   | (1/1) Accurately ripped
 13   | (1/1) Accurately ripped
 14   | (1/1) Accurately ripped
 15   | (1/1) Accurately ripped
 16   | (1/1) Accurately ripped
 17   | (1/1) Accurately ripped
 18   | (1/1) Accurately ripped
 19   | (1/1) Accurately ripped
 20   | (1/1) Accurately ripped
==== Log checksum F7311CA1622AC4F0FEAE4AD6346662CBF7C95906092DB19A7769C4FA0E1671A1 ====
Код: Выделить всё
REM GENRE Hip-Hop
REM DATE 2016
REM DISCID 2811ED14
REM COMMENT "ExactAudioCopy v1.1"
PERFORMER "Various "
TITLE "Chilled (Ministry Of Sound) CD1"
FILE "01. Wu-Tang Clan - C.R.E.A.M..wav" WAVE
  TRACK 01 AUDIO
    TITLE "C.R.E.A.M."
    PERFORMER "Wu-Tang Clan"
    INDEX 01 00:00:00
FILE "02. Cypress Hill - Insane In The Brain.wav" WAVE
  TRACK 02 AUDIO
    TITLE "Insane In The Brain "
    PERFORMER "Cypress Hill"
    INDEX 01 00:00:00
FILE "03. A Tribe Called Quest - Can I Kick It.wav" WAVE
  TRACK 03 AUDIO
    TITLE "Can I Kick It? "
    PERFORMER "A Tribe Called Quest"
    INDEX 01 00:00:00
FILE "04. The Pharcyde - Passin' Me By.wav" WAVE
  TRACK 04 AUDIO
    TITLE "Passin' Me By "
    PERFORMER "The Pharcyde"
    INDEX 01 00:00:00
FILE "05. KRS One - Mc's Act Like They Don't Know.wav" WAVE
  TRACK 05 AUDIO
    TITLE "Mc's Act Like They Don't Know "
    PERFORMER "KRS One"
    INDEX 01 00:00:00
FILE "06. Skee-Lo -  I Wish.wav" WAVE
  TRACK 06 AUDIO
    TITLE " I Wish "
    PERFORMER "Skee-Lo"
    INDEX 01 00:00:00
FILE "07. Common -  I Used To Love H.E.R..wav" WAVE
  TRACK 07 AUDIO
    TITLE " I Used To Love H.E.R."
    PERFORMER "Common"
    INDEX 01 00:00:00
FILE "08. Black Moon - How Many Mc's.wav" WAVE
  TRACK 08 AUDIO
    TITLE "How Many Mc's"
    PERFORMER "Black Moon"
    INDEX 01 00:00:00
FILE "09. Q-Tip - Let's Ride.wav" WAVE
  TRACK 09 AUDIO
    TITLE "Let's Ride"
    PERFORMER "Q-Tip"
    INDEX 01 00:00:00
FILE "10. Warren G feat. Nate Dogg - Regulate.wav" WAVE
  TRACK 10 AUDIO
    TITLE "Regulate"
    PERFORMER "Warren G feat. Nate Dogg"
    INDEX 01 00:00:00
FILE "11. Smif-N Wessun - Wreckonize.wav" WAVE
  TRACK 11 AUDIO
    TITLE "Wreckonize "
    PERFORMER "Smif-N Wessun"
    INDEX 01 00:00:00
FILE "12. Arrested Development - People Everyday (Metamorphosis Mix).wav" WAVE
  TRACK 12 AUDIO
    TITLE "People Everyday (Metamorphosis Mix) "
    PERFORMER "Arrested Development"
    INDEX 01 00:00:00
FILE "13. Eric B & Rakim - Paid In Full.wav" WAVE
  TRACK 13 AUDIO
    TITLE "Paid In Full "
    PERFORMER "Eric B & Rakim"
    INDEX 01 00:00:00
FILE "14. Onyx - Slam.wav" WAVE
  TRACK 14 AUDIO
    TITLE "Slam "
    PERFORMER "Onyx "
    INDEX 01 00:00:00
FILE "15. Ugly Duckling - A Little Samba.wav" WAVE
  TRACK 15 AUDIO
    TITLE "A Little Samba"
    PERFORMER "Ugly Duckling"
    INDEX 01 00:00:00
FILE "16. Bomb The Bass feat. Justin Warfield - Bug Powder Dust (La Fun Mob Remix).wav" WAVE
  TRACK 16 AUDIO
    TITLE "Bug Powder Dust (La Fun Mob Remix)"
    PERFORMER "Bomb The Bass feat. Justin Warfield"
    INDEX 01 00:00:00
FILE "17. Rakim - When I Be On Tha Mic.wav" WAVE
  TRACK 17 AUDIO
    TITLE "When I Be On Tha Mic"
    PERFORMER "Rakim"
    INDEX 01 00:00:00
FILE "18. Cam'Ron feat. Juelz Santana - Oh Boy.wav" WAVE
  TRACK 18 AUDIO
    TITLE "Oh Boy"
    PERFORMER "Cam'Ron feat. Juelz Santana"
    INDEX 01 00:00:00
FILE "19. Goodie Mob - Cell Therapy.wav" WAVE
  TRACK 19 AUDIO
    TITLE "Cell Therapy "
    PERFORMER "Goodie Mob"
    INDEX 01 00:00:00
FILE "20. J Dilla - So Far To Go feat. Common & D'Angelo.wav" WAVE
  TRACK 20 AUDIO
    TITLE "So Far To Go feat. Common & D'Angelo "
    PERFORMER "J Dilla"
    INDEX 01 00:00:00
Код: Выделить всё
Exact Audio Copy V1.1 from 23. June 2015
EAC extraction logfile from 21. June 2018, 7:18
Various / Chilled (Ministry Of Sound) CD2
Used drive  : ASUS    DRW-24D5MT   Adapter: 1  ID: 0
Read mode               : Secure
Utilize accurate stream : Yes
Defeat audio cache      : Yes
Make use of C2 pointers : No
Read offset correction                      : 6
Overread into Lead-In and Lead-Out          : No
Fill up missing offset samples with silence : Yes
Delete leading and trailing silent blocks   : No
Null samples used in CRC calculations       : Yes
Used interface                              : Native Win32 interface for Win NT & 2000
Gap handling                                : Appended to previous track
Used output format              : User Defined Encoder
Selected bitrate                : 768 kBit/s
Quality                         : High
Add ID3 tag                     : No
Command line compressor         : F:\Программы\Exact Audio Copy\FLAC\FLAC.EXE
Additional command line options : -6 -V -T "ARTIST=%artist%" -T "TITLE=%title%" -T "ALBUM=%albumtitle%" -T "DATE=%year%" -T "TRACKNUMBER=%tracknr%" -T "GENRE=%genre%" -T "COMMENT=Ripped by grandsrt8" -T "BAND=%albuminterpret%" -T "ALBUMARTIST=%albuminterpret%" -T "COMPOSER=%composer%" %haslyrics%--tag-from-file=LYRICS="%lyricsfile%"%haslyrics% -T "DISCNUMBER=%cdnumber%" -T "TOTALDISCS=%totalcds%" -T "TOTALTRACKS=%numtracks%" %hascover%--picture="%coverfile%"%hascover% %source% -o %dest%
TOC of the extracted CD
     Track |   Start  |  Length  | Start sector | End sector
    ---------------------------------------------------------
        1  |  0:00.00 |  3:51.28 |         0    |    17352
        2  |  3:51.28 |  3:06.73 |     17353    |    31375
        3  |  6:58.26 |  3:33.41 |     31376    |    47391
        4  | 10:31.67 |  5:19.54 |     47392    |    71370
        5  | 15:51.46 |  3:13.60 |     71371    |    85905
        6  | 19:05.31 |  3:18.29 |     85906    |   100784
        7  | 22:23.60 |  3:31.32 |    100785    |   116641
        8  | 25:55.17 |  3:22.11 |    116642    |   131802
        9  | 29:17.28 |  3:41.13 |    131803    |   148390
       10  | 32:58.41 |  3:34.12 |    148391    |   164452
       11  | 36:32.53 |  4:21.61 |    164453    |   184088
       12  | 40:54.39 |  3:43.37 |    184089    |   200850
       13  | 44:38.01 |  3:43.28 |    200851    |   217603
       14  | 48:21.29 |  4:45.08 |    217604    |   238986
       15  | 53:06.37 |  3:55.72 |    238987    |   256683
       16  | 57:02.34 |  2:41.49 |    256684    |   268807
       17  | 59:44.08 |  2:33.06 |    268808    |   280288
       18  | 62:17.14 |  3:52.02 |    280289    |   297690
       19  | 66:09.16 |  5:00.33 |    297691    |   320223
       20  | 71:09.49 |  4:23.64 |    320224    |   340012
Track  1
     Filename F:\Rips grandsrt8\01. Xzibit - Paparazzi.wav
     Pre-gap length  0:00:02.00
     Peak level 99.4 %
     Extraction speed 1.4 X
     Track quality 99.9 %
     Test CRC 2D7C5550
     Copy CRC 2D7C5550
     Accurately ripped (confidence 1)  [B019387B]  (AR v2)
     Copy OK
Track  2
     Filename F:\Rips grandsrt8\02. The Pharcyde - Runnin'.wav
     Peak level 99.4 %
     Extraction speed 1.9 X
     Track quality 100.0 %
     Test CRC 7AEE1601
     Copy CRC 7AEE1601
     Accurately ripped (confidence 1)  [BFD3CDA1]  (AR v2)
     Copy OK
Track  3
     Filename F:\Rips grandsrt8\03. Big L - Put It On.wav
     Peak level 99.4 %
     Extraction speed 2.1 X
     Track quality 100.0 %
     Test CRC 782D486F
     Copy CRC 782D486F
     Accurately ripped (confidence 1)  [73F82299]  (AR v2)
     Copy OK
Track  4
     Filename F:\Rips grandsrt8\04. Mobb Deep - Shook Ones, Pt. II.wav
     Peak level 99.4 %
     Extraction speed 2.0 X
     Track quality 99.9 %
     Test CRC 3D726855
     Copy CRC 3D726855
     Accurately ripped (confidence 1)  [EB180EE3]  (AR v2)
     Copy OK
Track  5
     Filename F:\Rips grandsrt8\05. Joey Dada$$ - Paper Trail$.wav
     Peak level 99.4 %
     Extraction speed 2.4 X
     Track quality 100.0 %
     Test CRC ED2552CE
     Copy CRC ED2552CE
     Accurately ripped (confidence 1)  [3D3C4F18]  (AR v2)
     Copy OK
Track  6
     Filename F:\Rips grandsrt8\06. Epmd - Da Joint.wav
     Peak level 99.4 %
     Extraction speed 2.6 X
     Track quality 100.0 %
     Test CRC 19340FAC
     Copy CRC 19340FAC
     Accurately ripped (confidence 1)  [36D6653C]  (AR v2)
     Copy OK
Track  7
     Filename F:\Rips grandsrt8\07. Gza feat. Method Man - Shadowboxin.wav
     Peak level 99.4 %
     Extraction speed 2.7 X
     Track quality 100.0 %
     Test CRC 5516A3D0
     Copy CRC 5516A3D0
     Accurately ripped (confidence 1)  [FFACF0D4]  (AR v2)
     Copy OK
Track  8
     Filename F:\Rips grandsrt8\08. Redman - Tonight's Da Night.wav
     Peak level 99.4 %
     Extraction speed 2.0 X
     Track quality 99.9 %
     Test CRC CD13F671
     Copy CRC CD13F671
     Accurately ripped (confidence 1)  [C0FBE829]  (AR v2)
     Copy OK
Track  9
     Filename F:\Rips grandsrt8\09. Deadprez - Hip Hop.wav
     Peak level 99.4 %
     Extraction speed 2.9 X
     Track quality 100.0 %
     Test CRC 638807D4
     Copy CRC 638807D4
     Accurately ripped (confidence 1)  [AF1E8389]  (AR v2)
     Copy OK
Track 10
     Filename F:\Rips grandsrt8\10. Outkast - Ms Jackson.wav
     Peak level 99.4 %
     Extraction speed 3.0 X
     Track quality 100.0 %
     Test CRC 85B8893E
     Copy CRC 85B8893E
     Accurately ripped (confidence 1)  [D0B78B8D]  (AR v2)
     Copy OK
Track 11
     Filename F:\Rips grandsrt8\11. DJ Jazzy Jeff & The Fresh Prince - Summertime.wav
     Peak level 99.4 %
     Extraction speed 3.2 X
     Track quality 100.0 %
     Test CRC 7DBF0024
     Copy CRC 7DBF0024
     Accurately ripped (confidence 1)  [6B1A871E]  (AR v2)
     Copy OK
Track 12
     Filename F:\Rips grandsrt8\12. LL Cool J - Doin' It.wav
     Peak level 99.4 %
     Extraction speed 3.3 X
     Track quality 100.0 %
     Test CRC 78DA766D
     Copy CRC 78DA766D
     Accurately ripped (confidence 1)  [281C0031]  (AR v2)
     Copy OK
Track 13
     Filename F:\Rips grandsrt8\13. Ludacris feat. Nate Dogg - Area Codes.wav
     Peak level 99.4 %
     Extraction speed 3.4 X
     Track quality 100.0 %
     Test CRC 7C5DA285
     Copy CRC 7C5DA285
     Accurately ripped (confidence 1)  [A6D88BFA]  (AR v2)
     Copy OK
Track 14
     Filename F:\Rips grandsrt8\14. Nelly feat. City Spud -  Ride Wit Me.wav
     Peak level 99.4 %
     Extraction speed 3.6 X
     Track quality 100.0 %
     Test CRC D4E6FE79
     Copy CRC D4E6FE79
     Accurately ripped (confidence 1)  [24DAD4A9]  (AR v2)
     Copy OK
Track 15
     Filename F:\Rips grandsrt8\15. A$ap Rocky - Excuse Me.wav
     Peak level 99.4 %
     Extraction speed 3.6 X
     Track quality 100.0 %
     Test CRC 8050627C
     Copy CRC 8050627C
     Accurately ripped (confidence 1)  [C2BC4D60]  (AR v2)
     Copy OK
Track 16
     Filename F:\Rips grandsrt8\16. Bishop Nehru - You Stressin'.wav
     Peak level 99.4 %
     Extraction speed 2.4 X
     Track quality 99.9 %
     Test CRC C6C4F723
     Copy CRC C6C4F723
     Accurately ripped (confidence 1)  [20B7D509]  (AR v2)
     Copy OK
Track 17
     Filename F:\Rips grandsrt8\17. Childish Gambino - Sweatpants.wav
     Peak level 99.4 %
     Extraction speed 2.4 X
     Track quality 99.9 %
     Test CRC D473135A
     Copy CRC D473135A
     Accurately ripped (confidence 1)  [8D54F161]  (AR v2)
     Copy OK
Track 18
     Filename F:\Rips grandsrt8\18. The Weeknd - Hills.wav
     Peak level 99.4 %
     Extraction speed 3.8 X
     Track quality 100.0 %
     Test CRC CEB4CB50
     Copy CRC CEB4CB50
     Accurately ripped (confidence 1)  [0A60221B]  (AR v2)
     Copy OK
Track 19
     Filename F:\Rips grandsrt8\19. Jay Z - Song Cry.wav
     Peak level 99.4 %
     Extraction speed 3.2 X
     Track quality 99.9 %
     Test CRC 6ECCE7F2
     Copy CRC 6ECCE7F2
     Accurately ripped (confidence 1)  [7BC903BE]  (AR v2)
     Copy OK
Track 20
     Filename F:\Rips grandsrt8\20. Salt-N Pepa - Push It.wav
     Peak level 99.4 %
     Extraction speed 4.0 X
     Track quality 100.0 %
     Test CRC 7C85E79F
     Copy CRC 7C85E79F
     Accurately ripped (confidence 1)  [EDAEB42A]  (AR v2)
     Copy OK
All tracks accurately ripped
No errors occurred
End of status report
---- CUETools DB Plugin V2.1.6
[CTDB TOCID: QqhVAHVnoSXqEVv98s36Wpl_i98-] found
Submit result: QqhVAHVnoSXqEVv98s36Wpl_i98- has been confirmed
Track | CTDB Status
  1   | (1/1) Accurately ripped
  2   | (1/1) Accurately ripped
  3   | (1/1) Accurately ripped
  4   | (1/1) Accurately ripped
  5   | (1/1) Accurately ripped
  6   | (1/1) Accurately ripped
  7   | (1/1) Accurately ripped
  8   | (1/1) Accurately ripped
  9   | (1/1) Accurately ripped
 10   | (1/1) Accurately ripped
 11   | (1/1) Accurately ripped
 12   | (1/1) Accurately ripped
 13   | (1/1) Accurately ripped
 14   | (1/1) Accurately ripped
 15   | (1/1) Accurately ripped
 16   | (1/1) Accurately ripped
 17   | (1/1) Accurately ripped
 18   | (1/1) Accurately ripped
 19   | (1/1) Accurately ripped
 20   | (1/1) Accurately ripped
==== Log checksum ADAD6579D2EA5CF8473B1CFD82AE88A75A989DFCE3C4A5936F94E68878C05B34 ====
Код: Выделить всё
REM GENRE Hip-Hop
REM DATE 2016
REM DISCID 3011B514
REM COMMENT "ExactAudioCopy v1.1"
PERFORMER "Various"
TITLE "Chilled (Ministry Of Sound) CD2"
FILE "01. Xzibit - Paparazzi.wav" WAVE
  TRACK 01 AUDIO
    TITLE "Paparazzi "
    PERFORMER "Xzibit"
    INDEX 01 00:00:00
FILE "02. The Pharcyde - Runnin'.wav" WAVE
  TRACK 02 AUDIO
    TITLE "Runnin' "
    PERFORMER "The Pharcyde"
    INDEX 01 00:00:00
FILE "03. Big L - Put It On.wav" WAVE
  TRACK 03 AUDIO
    TITLE "Put It On"
    PERFORMER "Big L "
    INDEX 01 00:00:00
FILE "04. Mobb Deep - Shook Ones, Pt. II.wav" WAVE
  TRACK 04 AUDIO
    TITLE "Shook Ones, Pt. II "
    PERFORMER "Mobb Deep"
    INDEX 01 00:00:00
FILE "05. Joey Dada$$ - Paper Trail$.wav" WAVE
  TRACK 05 AUDIO
    TITLE "Paper Trail$ "
    PERFORMER "Joey Dada$$"
    INDEX 01 00:00:00
FILE "06. Epmd - Da Joint.wav" WAVE
  TRACK 06 AUDIO
    TITLE "Da Joint "
    PERFORMER "Epmd "
    INDEX 01 00:00:00
FILE "07. Gza feat. Method Man - Shadowboxin.wav" WAVE
  TRACK 07 AUDIO
    TITLE "Shadowboxin"
    PERFORMER "Gza feat. Method Man"
    INDEX 01 00:00:00
FILE "08. Redman - Tonight's Da Night.wav" WAVE
  TRACK 08 AUDIO
    TITLE "Tonight's Da Night"
    PERFORMER "Redman"
    INDEX 01 00:00:00
FILE "09. Deadprez - Hip Hop.wav" WAVE
  TRACK 09 AUDIO
    TITLE "Hip Hop"
    PERFORMER "Deadprez"
    INDEX 01 00:00:00
FILE "10. Outkast - Ms Jackson.wav" WAVE
  TRACK 10 AUDIO
    TITLE "Ms Jackson"
    PERFORMER "Outkast"
    INDEX 01 00:00:00
FILE "11. DJ Jazzy Jeff & The Fresh Prince - Summertime.wav" WAVE
  TRACK 11 AUDIO
    TITLE "Summertime "
    PERFORMER "DJ Jazzy Jeff & The Fresh Prince"
    INDEX 01 00:00:00
FILE "12. LL Cool J - Doin' It.wav" WAVE
  TRACK 12 AUDIO
    TITLE "Doin' It"
    PERFORMER "LL Cool J"
    INDEX 01 00:00:00
FILE "13. Ludacris feat. Nate Dogg - Area Codes.wav" WAVE
  TRACK 13 AUDIO
    TITLE "Area Codes "
    PERFORMER "Ludacris feat. Nate Dogg"
    INDEX 01 00:00:00
FILE "14. Nelly feat. City Spud -  Ride Wit Me.wav" WAVE
  TRACK 14 AUDIO
    TITLE " Ride Wit Me "
    PERFORMER "Nelly feat. City Spud"
    INDEX 01 00:00:00
FILE "15. A$ap Rocky - Excuse Me.wav" WAVE
  TRACK 15 AUDIO
    TITLE "Excuse Me "
    PERFORMER "A$ap Rocky"
    INDEX 01 00:00:00
FILE "16. Bishop Nehru - You Stressin'.wav" WAVE
  TRACK 16 AUDIO
    TITLE "You Stressin' "
    PERFORMER "Bishop Nehru"
    INDEX 01 00:00:00
FILE "17. Childish Gambino - Sweatpants.wav" WAVE
  TRACK 17 AUDIO
    TITLE "Sweatpants "
    PERFORMER "Childish Gambino"
    INDEX 01 00:00:00
FILE "18. The Weeknd - Hills.wav" WAVE
  TRACK 18 AUDIO
    TITLE "Hills "
    PERFORMER "The Weeknd "
    INDEX 01 00:00:00
FILE "19. Jay Z - Song Cry.wav" WAVE
  TRACK 19 AUDIO
    TITLE "Song Cry"
    PERFORMER "Jay Z"
    INDEX 01 00:00:00
FILE "20. Salt-N Pepa - Push It.wav" WAVE
  TRACK 20 AUDIO
    TITLE "Push It "
    PERFORMER "Salt-N Pepa"
    INDEX 01 00:00:00
 
Не забывайте говорить Спасибо. Не уходите с раздачи!   
Торрент: Зарегистрирован [22 июн 2018, 22:25] Скачать торрент
Скачать торрент
[ Размер 14.69 КБ / Просмотров 16 ]
Статус:
Проверен
 
.torrent скачан: 0 раз
Хэш: 66e2bf4e55f935c31823caaafc8eca245cf6bcbf
Размер: 1.01 ГБ (1 084 002 679 байт)
Стать Автором раздачи
 
 
Раздал: 0 байт
Скачал: 0 байт
Ратио: Inf.
Сообщения: 487468
Зарегистрирован: 17 апр 2014, 13:57


  • Похожие торренты
    Ответы
    Просмотры
    Последнее сообщение

Вернуться в Зарубежный Рэп, Хип-Хоп (lossless)

Ресурс не предоставляет электронные версии произведений, а занимается лишь коллекционированием и каталогизацией ссылок, присылаемых и публикуемых на форуме нашими читателями. Если вы являетесь правообладателем какого-либо представленного материала и не желаете чтобы ссылка на него находилась в нашем каталоге, свяжитесь с нами и мы незамедлительно удалим её. Файлы для обмена на трекере предоставлены пользователями сайта, и администрация не несёт ответственности за их содержание. Просьба не заливать файлы, защищенные авторскими правами, а также файлы нелегального содержания!
cron