[TR24][OF] Ensemble Oni Wytars - Cantar d'amore (Special edition) - 2015 (Renaissance, Baroque, Classical)

 
 Статистика раздачи 
Размер: 675.12 МБ   |  Зарегистрирован: 22 июн 2018, 11:55   |   .torrent скачан: 0 раз
Сидеров: 1  [ 0 байт/сек ]     Личеров: 0  [ 0 байт/сек ]  
  

[TR24][OF] Ensemble Oni Wytars - Cantar d'amore (Special edition) - 2015 (Renaissance, Baroque, Classical)

Сообщение Nakazhu » 22 июн 2018, 11:55

Ensemble Oni Wytars - Cantar d'amore
Формат записи/Источник записи: [TR24][OF]
Наличие водяных знаков: Нет
Издание: Special edition
Год издания/переиздания диска: 2015
Жанр: Renaissance, Baroque, Classical
Издатель (лейбл): Harmonia Mundi
Продолжительность: 00:01:00:58
Наличие сканов в содержимом раздачи: Буклет PDF
Треклист:
01. Alla montanara.
02. Calata.
03. Vurria ca fosse ciaola.
04. Serenata sulla Ceccola.
05. Maronna nun e cchiu.
06. Antidotum Tarantulae.
07. Pizzica di San Vito.
08. Questi cappelli d'or.
09. Cinquecento catenelle.
10. Che si puo fare.
11. Romanesca.
12. Vulumbrella.
13. Alla femminisca.
14. Tu dormi.
15. La rondinella.
16. Ninna nanna palermitana.
Контейнер: FLAC (*.flac)
Тип рипа: tracks
Разрядность: 24/48
Формат: PCM
Количество каналов: 2.0
Код: Выделить всё
foobar2000 1.3.8 / Dynamic Range Meter 1.1.1
log date: 2018-06-21 21:23:39
--------------------------------------------------------------------------------
Analyzed: Ensemble Oni Wytars / Cantar d'amore
--------------------------------------------------------------------------------
DR         Peak         RMS     Duration Track
--------------------------------------------------------------------------------
DR8       -0.20 dB   -11.59 dB      6:30 01-Alla montanara
DR7       -0.20 dB    -9.38 dB      2:09 02-Calata
DR8       -0.20 dB   -10.84 dB      4:29 03-Vurria ca fosse ciaola
DR8       -0.20 dB   -12.10 dB      3:31 04-Serenata sulla Ceccola
DR9       -0.20 dB   -11.44 dB      4:12 05-Maronna nun è cchiù
DR7       -0.20 dB   -10.96 dB      3:46 06-Antidotum Tarantulae
DR9       -0.20 dB   -13.36 dB      4:28 07-Pizzica di San Vito
DR8       -0.20 dB   -10.73 dB      3:00 08-Questi cappelli d'or
DR9       -0.20 dB   -12.75 dB      3:28 09-Cinquecento catenelle
DR10      -0.20 dB   -14.43 dB      5:21 10-Che si può fare
DR13      -0.21 dB   -16.36 dB      1:50 11-Romanesca
DR9       -0.20 dB   -12.15 dB      5:31 12-Vulumbrella
DR10      -0.20 dB   -15.15 dB      1:37 13-Alla femminisca
DR9       -0.20 dB   -11.78 dB      3:53 14-Tu dormi
DR10      -0.20 dB   -13.16 dB      5:14 15-La rondinella
DR9       -4.78 dB   -17.21 dB      1:59 16-Ninna nanna palermitana
--------------------------------------------------------------------------------
Number of tracks:  16
Official DR value: DR9
Samplerate:        48000 Hz
Channels:          2
Bits per sample:   24
Bitrate:           1316 kbps
Codec:             FLAC
================================================================================
Источник (релизер): Qobuz
 
Не забывайте говорить Спасибо. Не уходите с раздачи!   
Торрент: Зарегистрирован [22 июн 2018, 11:55] Скачать торрент
Скачать торрент
[ Размер 14.73 КБ / Просмотров 11 ]
Статус:
Проверен
 
.torrent скачан: 0 раз
Хэш: 7697841df2ab7464fa42b7fe1a522d1d7a2b097c
Размер: 675.12 МБ (707 912 962 байт)
Стать Автором раздачи
 
 
Раздал: 0 байт
Скачал: 0 байт
Ратио: Inf.
Сообщения: 487468
Зарегистрирован: 17 апр 2014, 13:57


  • Похожие торренты
    Ответы
    Просмотры
    Последнее сообщение

Вернуться в Многоканальная музыка и собственные оцифровки (поп-музыка)

Ресурс не предоставляет электронные версии произведений, а занимается лишь коллекционированием и каталогизацией ссылок, присылаемых и публикуемых на форуме нашими читателями. Если вы являетесь правообладателем какого-либо представленного материала и не желаете чтобы ссылка на него находилась в нашем каталоге, свяжитесь с нами и мы незамедлительно удалим её. Файлы для обмена на трекере предоставлены пользователями сайта, и администрация не несёт ответственности за их содержание. Просьба не заливать файлы, защищенные авторскими правами, а также файлы нелегального содержания!
cron