Неслабый пол / The Opposite Sex (Дженнифер Финниган, Джонатан Силвермен / Jennifer Finnigan, Jonathan Silverman) [2014, США, Комедия, DVD9] R5 Dub

 
 Статистика раздачи 
Размер: 6.11 ГБ   |  Зарегистрирован: 20 июн 2018, 19:42   |   .torrent скачан: 0 раз
Сидеров: 1  [ 0 байт/сек ]     Личеров: 0  [ 0 байт/сек ]  
  

Неслабый пол / The Opposite Sex (Дженнифер Финниган, Джонатан Силвермен / Jennifer Finnigan, Jonathan Silverman) [2014, США, Комедия, DVD9] R5 Dub

Сообщение Nakazhu » 20 июн 2018, 19:42

Неслабый пол / The Opposite Sex
«Соблазни её, если сможешь»

Страна: США
Студии: Verdi Productions, Magna Entertainment
Жанр: Комедия
Год выпуска: 2014
Дата мировой премьеры: 22 октября 2014
Дата российской премьеры: 19 мая 2016, «Кинологистика»
Дата выхода DVD релиза: 20 июня 2016, «НД Плэй»
Продолжительность: 01:32:43
Перевод: Профессиональный (дублированный) [Лицензия]
Субтитры: Нет
Оригинальная аудиодорожка: Нет
Режиссер: Дженнифер Финниган, Джонатан Силвермен / Jennifer Finnigan, Jonathan Silverman
Продюсеры: Дженнифер Финниган, Джино Перейра, Клер Северанс
Актеры: Мена Сувари, Джофф Стульц, Дженнифер Финниган, Джош Хопкинс, Кенан Томпсон, Джош Кук, Дебра Джо Рапп, Джои Фатоне, Том ДеНуччи, Джонатан Силвермен
Описание:
Винс — адвокат, который привык выигрывать везде и всюду. Победитель по жизни, он меняет девушек, как перчатки. Успешный холостяк, для которого доступна любая девушка в баре… кроме Джейн. Знакомство со сногсшибательной блондинкой Джейн ставит жизнь Винса сног на голову. И теперь главная его цель — заполучить ее любой ценой. Но для этого придется играть по ее правилам.
Доп. материалы: Анонсы

Качество: DVD9 R5
Формат: DVD-Video
Видео: MPEG-2, 720x576@1024x576 (PAL 16:9), ~7100 Кбит/сек
Аудио: AC3 5.1, 448 Кбит/сек [Русский - дублированный]
Title: The Opposite Sex (2014) DVD9 R5
Size: 6.11 Gb ( 6 411 184,00 KBytes ) - DVD-9
Enabled regions: 1, 2, 3, 4, 5, 6, 7, 8
VTS_01 :
Play Length: 00:00:15
Video: PAL 4:3 (720x576) VBR
Audio:
Not specified (Dolby AC3, 2 ch)
VTS_02 :
Play Length: 00:00:05
Video: PAL 16:9 (720x576) VBR, Auto Letterboxed
Audio:
Not specified (Dolby AC3, 2 ch)
VTS_03 :
Play Length: 00:01:41
Video: PAL 16:9 (720x576) VBR, Auto Letterboxed
Audio:
Russian (Dolby AC3, 2 ch)
VTS_04 :
Play Length: 00:01:29
Video: PAL 16:9 (720x576) VBR, Auto Letterboxed
Audio:
Russian (Dolby AC3, 2 ch)
VTS_05 :
Play Length: 00:01:06
Video: PAL 16:9 (720x576) VBR, Auto Letterboxed
Audio:
Russian (Dolby AC3, 2 ch)
VTS_06 :
Play Length: 00:02:20
Video: PAL 16:9 (720x576) VBR, Auto Letterboxed
Audio:
Russian (Dolby AC3, 2 ch)
VTS_07 :
Play Length: 00:01:50
Video: PAL 16:9 (720x576) VBR, Auto Letterboxed
Audio:
Russian (Dolby AC3, 2 ch)
VTS_08 :
Play Length: 00:02:20
Video: PAL 16:9 (720x576) VBR, Auto Letterboxed
Audio:
Russian (Dolby AC3, 2 ch)
VTS_09 :
Play Length: 00:02:12
Video: PAL 16:9 (720x576) VBR, Auto Letterboxed
Audio:
Russian (Dolby AC3, 2 ch)
VTS_10 :
Play Length: 00:02:55
Video: PAL 16:9 (720x576) VBR, Auto Letterboxed
Audio:
Russian (Dolby AC3, 2 ch)
VTS_11 :
Play Length: 00:02:34
Video: PAL 16:9 (720x576) VBR, Auto Letterboxed
Audio:
Russian (Dolby AC3, 2 ch)
VTS_12 :
Play Length: 00:02:04
Video: PAL 16:9 (720x576) VBR, Auto Letterboxed
Audio:
Russian (Dolby AC3, 2 ch)
VTS_13 :
Play Length: 00:02:35
Video: PAL 16:9 (720x576) VBR, Auto Letterboxed
Audio:
Russian (Dolby AC3, 2 ch)
VTS_14 :
Play Length: 01:32:43
Video: PAL 16:9 (720x576) VBR, Auto Letterboxed
Audio:
Russian, AC3, 3/2 (L,C,R,SL,SR)+LFE ch, 448 kbps, Delay 0 mSec
VTS_15 :
Play Length: 00:00:01
Video: PAL 16:9 (720x576) VBR, Auto Letterboxed
Audio:
Russian (Dolby AC3, 2 ch)
Общее
Полное имя : G:\Torrents\The Opposite Sex (2014) DVD9 R5\VIDEO_TS\VTS_14_2.VOB
Формат : MPEG-PS
Размер файла : 1000 Мбайт
Продолжительность : 18 м. 8 с.
Режим общего битрейта : Переменный
Общий поток : 7706 Кбит/сек
Видео
Идентификатор : 224 (0xE0)
Формат : MPEG Video
Версия формата : Version 2
Профиль формата : Main@Main
Настройки формата : BVOP
Параметр BVOP формата : Да
Параметр матрицы формата : По умолчанию
Параметр GOP формата : M=3, N=12
Продолжительность : 18 м. 8 с.
Вид битрейта : Переменный
Битрейт : 7105 Кбит/сек
Максимальный битрейт : 8500 Кбит/сек
Ширина : 720 пикселей
Высота : 576 пикселей
Соотношение сторон : 16:9
Частота кадров : 25,000 кадров/сек
Стандарт вещания : PAL
Цветовое пространство : YUV
Субдискретизация насыщенности : 4:2:0
Битовая глубина : 8 бит
Тип развёртки : Прогрессивная
Метод сжатия : С потерями
Бит/(Пиксели*Кадры) : 0.685
Временной код первого кадра : 00:18:27:03
Оригинал временного кода : Group of pictures header
Размер потока : 922 Мбайт (92%)
Аудио
Идентификатор : 189 (0xBD)-128 (0x80)
Формат : AC-3
Формат/Информация : Audio Coding 3
Параметр Endianness формата : Big
Режим смешивания : DVD-Video
Продолжительность : 18 м. 8 с.
Вид битрейта : Постоянный
Битрейт : 448 Кбит/сек
Каналы : 6 каналов
Расположение каналов : Front: L C R, Side: L R, LFE
Частота : 48,0 КГц
Частота кадров : 31,250 кадров/сек (1536 SPF)
Битовая глубина : 16 бит
Метод сжатия : С потерями
Задержка видео : -448 мс.
Размер потока : 58,1 Мбайт (6%)
ServiceKind/String : Complete Main
Меню


За предоставленный DVD спасибо большое AKIM2B
Раздаю с 10:00 до 23:00 до 10 скачавших.
 
Не забывайте говорить Спасибо. Не уходите с раздачи!   
Торрент: Зарегистрирован [20 июн 2018, 19:42] Скачать торрент
Скачать торрент
[ Размер 33.68 КБ / Просмотров 3 ]
Статус:
Проверен
 
.torrent скачан: 0 раз
Хэш: 5ac5d40fd3feab7bdc4143f06d6a56434008a8ac
Размер: 6.11 ГБ (6 565 052 416 байт)
Стать Автором раздачи
 
 
Раздал: 0 байт
Скачал: 0 байт
Ратио: Inf.
Сообщения: 487468
Зарегистрирован: 17 апр 2014, 13:57


  • Похожие торренты
    Ответы
    Просмотры
    Последнее сообщение

Вернуться в Зарубежные фильмы (DVD)

Ресурс не предоставляет электронные версии произведений, а занимается лишь коллекционированием и каталогизацией ссылок, присылаемых и публикуемых на форуме нашими читателями. Если вы являетесь правообладателем какого-либо представленного материала и не желаете чтобы ссылка на него находилась в нашем каталоге, свяжитесь с нами и мы незамедлительно удалим её. Файлы для обмена на трекере предоставлены пользователями сайта, и администрация не несёт ответственности за их содержание. Просьба не заливать файлы, защищенные авторскими правами, а также файлы нелегального содержания!
cron