Первая сила / The First Power (Роберт Резникофф / Robert Reznikoff) [1990, США, ужасы, триллер, криминал, BDRip] AVO (Михаил Иванов - VHS)

 
 Статистика раздачи 
Размер: 1.47 ГБ   |  Зарегистрирован: 20 июн 2018, 19:30   |   .torrent скачан: 0 раз
Сидеров: 1  [ 0 байт/сек ]     Личеров: 0  [ 0 байт/сек ]  
  

Первая сила / The First Power (Роберт Резникофф / Robert Reznikoff) [1990, США, ужасы, триллер, криминал, BDRip] AVO (Михаил Иванов - VHS)

Сообщение Nakazhu » 20 июн 2018, 19:30

Первая сила / The First Power
Страна: США
Жанр: ужасы, триллер, криминал
Год выпуска: 1990
Продолжительность: 01:38:33

Перевод: Авторский (одноголосый закадровый) Михаил Иванов - VHS
Субтитры: нет
Режиссер: Роберт Резникофф / Robert Reznikoff
В ролях: Лу Даймонд Филлипс, Трэйси Гриффит, Джефф Кобер, Майкелти Уильямсон, Элизабет Арлен, Деннис Липском, Кармен Ардженциано, Джулианна МакКарти
Описание: После долгой охоты, детектив Расселл Логан, наконец-то, арестовывает зверского ритуального убийцу и наблюдает за его казней в Сан Квентине. Однако, когда ритуальные убийства начинают происходить снова, у Логана появляются видения, и он ищет помощи у экстрасенса. Вместе они обнаруживают, что ритуальный убийца — это один из учеников Сатаны, обладающий ужасной силой перевоплощения в тела других людей. Теперь Логан должен приступить к поискам убийцы снова, не зная где он, и что более ужасное, в кого он перевоплотился на этот раз...
Доп. информация: Выражаю огромную благодарность Нордеру за синхронизацию и чистку звуковой дорожки. За дорогу спасибо RoxMarty.
Сэмпл: http://multi-up.com/1201972
Качество видео: BDRip (Исходник BDRemux 1080p)
Формат видео: AVI
Видео: XviD 73, 720x384, (1,85:1), 23,976 fps, 1905 Кбит/с, 8 бит, 0.29 bit/pixel
Аудио: Русский (АС3, 2 ch (Front: L R), 48,0 KHz, 224 Kbps)
Код: Выделить всё
Общее
Полное имя                               : H:\Фильмы на трекер\Первая сила   (ужасы, триллер, криминал 1990 год).avi
Формат                                   : AVI
Формат/Информация                        : Audio Video Interleave
Размер файла                             : 1,47 Гбайт
Продолжительность                        : 1 ч. 38 м.
Общий поток                              : 2138 Кбит/сек
Программа кодирования                    : VirtualDubMod 1.5.10.2 (build 2540/release)
Библиотека кодирования                   : VirtualDubMod build 2540/release
Видео
Идентификатор                            : 0
Формат                                   : MPEG-4 Visual
Профиль формата                          : Advanced Simple@L5
Параметр BVOP формата                    : 2
Параметр QPel формата                    : Нет
Параметр GMC формата                     : Без точки перехода
Параметр матрицы формата                 : Выборочная
Идентификатор кодека                     : XVID
Идентификатор кодека/Подсказка           : XviD
Продолжительность                        : 1 ч. 38 м.
Битрейт                                  : 1905 Кбит/сек
Ширина                                   : 720 пикселей
Высота                                   : 384 пикселя
Соотношение сторон                       : 1,85:1
Частота кадров                           : 23,976 (23976/1000) кадра/сек
Цветовое пространство                    : YUV
Субдискретизация насыщенности            : 4:2:0
Битовая глубина                          : 8 бит
Тип развёртки                            : Прогрессивная
Метод сжатия                             : С потерями
Бит/(Пиксели*Кадры)                      : 0.287
Размер потока                            : 1,31 Гбайт (89%)
Библиотека кодирования                   : XviD 73
Аудио
Идентификатор                            : 1
Формат                                   : AC-3
Формат/Информация                        : Audio Coding 3
Расширение режима                        : CM (complete main)
Параметр Endianness формата              : Big
Идентификатор кодека                     : 2000
Продолжительность                        : 1 ч. 38 м.
Вид битрейта                             : Постоянный
Битрейт                                  : 224 Кбит/сек
Каналы                                   : 2 канала
Расположение каналов                     : Front: L R
Частота                                  : 48,0 КГц
Частота кадров                           : 31,250 кадров/сек (1536 spf)
Метод сжатия                             : С потерями
Размер потока                            : 158 Мбайт (10%)
Выравнивание                             : Разделение по промежуткам
Продолжительность промежутка             : 42  мс. (1,00 видеокадр)
Время предзагрузки промежутка            : 500  мс.
 
Не забывайте говорить Спасибо. Не уходите с раздачи!   
Торрент: Зарегистрирован [20 июн 2018, 19:30] Скачать торрент
Скачать торрент
[ Размер 15.23 КБ / Просмотров 4 ]
Статус:
Проверен
 
.torrent скачан: 0 раз
Хэш: 48c53acfcb607c2b0dd932bd9b5d030c26da664b
Размер: 1.47 ГБ (1 580 720 128 байт)
Стать Автором раздачи
 
 
Раздал: 0 байт
Скачал: 0 байт
Ратио: Inf.
Сообщения: 487468
Зарегистрирован: 17 апр 2014, 13:57


  • Похожие торренты
    Ответы
    Просмотры
    Последнее сообщение

Вернуться в Зарубежные фильмы до 1990 года

Ресурс не предоставляет электронные версии произведений, а занимается лишь коллекционированием и каталогизацией ссылок, присылаемых и публикуемых на форуме нашими читателями. Если вы являетесь правообладателем какого-либо представленного материала и не желаете чтобы ссылка на него находилась в нашем каталоге, свяжитесь с нами и мы незамедлительно удалим её. Файлы для обмена на трекере предоставлены пользователями сайта, и администрация не несёт ответственности за их содержание. Просьба не заливать файлы, защищенные авторскими правами, а также файлы нелегального содержания!
cron