(Духовные песнопения и музыка (lossless)) [CD] Иосиф Маринкович - Литургия св. Иоанна Златоуста - 1999, FLAC (image+.cue), lossless

 
 Статистика раздачи 
Размер: 265.34 МБ   |  Зарегистрирован: 19 июн 2018, 15:36   |   .torrent скачан: 0 раз
Сидеров: 1  [ 0 байт/сек ]     Личеров: 0  [ 0 байт/сек ]  
  

(Духовные песнопения и музыка (lossless)) [CD] Иосиф Маринкович - Литургия св. Иоанна Златоуста - 1999, FLAC (image+.cue), lossless

Сообщение Nakazhu » 19 июн 2018, 15:36

Хор РТС / Иосиф Маринкович - Литургия св. Иоанна Златоуста
Жанр: Духовные песнопения и музыка (lossless)
Носитель: CD
Страна-производитель диска (релиза): Сербия
Год издания: 1999
Издатель (лейбл): ПГП-РТС
Номер по каталогу: ЦД 430824
Страна исполнителя (группы): Сербия
Аудиокодек: FLAC (*.flac)
Тип рипа: image+.cue
Битрейт аудио: lossless
Продолжительность: 59:00:52
Источник (релизер): ПГП-РТС
Наличие сканов в содержимом раздачи: да
Треклист:
Хор РТС - "Јосиф Маринковић - Литургија св. Јована Златоустог"
01."Велика јектенија"
02. "Слава: Благослови душе моја Господа (Пс. 102:1)"
03. "Слава: Јединородниј Сине"
04. "Придите поклонимсја"
05. "Свјатиј Боже"
06. "Алилуја"
07. "Јектенија"
08. "Херувимска песма"
09. "Јектенија"
10. "Оца и Сина"
11. "Символ вере"
12. "Канон евхаристије"
13. "Достојно јест"
14. "Оче наш"
15. "Једин свјат"
16. "Причасна песма"
17. "Благословен грјадиј"
18. "Видјехом свјет истиниј"
19. "Да исполњатсја уста наша"
20. "Буди имја Господње"
Код: Выделить всё
Track |   Start  |  Length  | Start sector | End sector
    ---------------------------------------------------------
        1  |  0:00.00 |  4:10.35 |         0    |    18784
        2  |  4:10.35 |  4:11.20 |     18785    |    37629
        3  |  8:21.55 |  3:02.37 |     37630    |    51316
        4  | 11:24.17 |  0:51.10 |     51317    |    55151
        5  | 12:15.27 |  2:53.40 |     55152    |    68166
        6  | 15:08.67 |  1:17.60 |     68167    |    74001
        7  | 16:26.52 |  4:16.38 |     74002    |    93239
        8  | 20:43.15 |  7:19.22 |     93240    |   126186
        9  | 28:02.37 |  2:16.08 |    126187    |   136394
       10  | 30:18.45 |  0:49.42 |    136395    |   140111
       11  | 31:08.12 |  3:23.60 |    140112    |   155396
       12  | 34:31.72 |  5:59.73 |    155397    |   182394
       13  | 40:31.70 |  4:21.12 |    182395    |   201981
       14  | 44:53.07 |  5:34.08 |    201982    |   227039
       15  | 50:27.15 |  1:16.47 |    227040    |   232786
       16  | 51:43.62 |  3:02.43 |    232787    |   246479
       17  | 54:46.30 |  0:27.20 |    246480    |   248524
       18  | 55:13.50 |  0:41.45 |    248525    |   251644
       19  | 55:55.20 |  3:05.32 |    251645    |   265551
       20  | 59:00.52 |  2:44.20 |    265552    |   277871
Код: Выделить всё
PERFORMER "Хор РТС"
TITLE "Јосиф Маринковић - Литургија св. Јована Златоустог"
FILE "Хор РТС - Јосиф Маринковић - Литургија св. Јована Златоустог.flac" WAVE
  TRACK 01 AUDIO
    TITLE "Велика јектенија"
    INDEX 01 00:00:00
  TRACK 02 AUDIO
    TITLE "Слава: Благослови душе моја Господа (Пс. 102:1)"
    INDEX 01 04:10:35
  TRACK 03 AUDIO
    TITLE "Слава: Јединородниј Сине"
    INDEX 01 08:21:55
  TRACK 04 AUDIO
    TITLE "Придите поклонимсја"
    INDEX 01 11:24:17
  TRACK 05 AUDIO
    TITLE "Свјатиј Боже"
    INDEX 01 12:15:27
  TRACK 06 AUDIO
    TITLE "Алилуја"
    INDEX 01 15:08:67
  TRACK 07 AUDIO
    TITLE "Јектенија"
    INDEX 01 16:26:52
  TRACK 08 AUDIO
    TITLE "Херувимска песма"
    INDEX 01 20:43:15
  TRACK 09 AUDIO
    TITLE "Јектенија"
    INDEX 01 28:02:37
  TRACK 10 AUDIO
    TITLE "Оца и Сина"
    INDEX 01 30:18:45
  TRACK 11 AUDIO
    TITLE "Символ вере"
    INDEX 01 31:08:12
  TRACK 12 AUDIO
    TITLE "Канон евхаристије"
    INDEX 01 34:31:72
  TRACK 13 AUDIO
    TITLE "Достојно јест"
    INDEX 01 40:31:70
  TRACK 14 AUDIO
    TITLE "Оче наш"
    INDEX 01 44:53:07
  TRACK 15 AUDIO
    TITLE "Једин свјат"
    INDEX 01 50:27:15
  TRACK 16 AUDIO
    TITLE "Причасна песма"
    INDEX 01 51:43:62
  TRACK 17 AUDIO
    TITLE "Благословен грјадиј"
    INDEX 01 54:46:30
  TRACK 18 AUDIO
    TITLE "Видјехом свјет истиниј"
    INDEX 01 55:13:50
  TRACK 19 AUDIO
    TITLE "Да исполњатсја уста наша"
    INDEX 01 55:55:20
  TRACK 20 AUDIO
    TITLE "Буди имја Господње"
    INDEX 01 59:00:52
Код: Выделить всё
[CUETools log; Date: 18.6.2018 19:48:54; Version: 2.1.6]
Offset applied: 48
[CTDB TOCID: GjfBTCxQEljS0dbj3H4MyrJ_CH8-] disk not present in database.
[AccurateRip ID: 002f28e6-02b0a26a-1c0e7814] disk not present in database.
Track Peak [ CRC32  ] [W/O NULL]
 --   97,6 [511D9076] [28C57521]
 01   82,6 [03AAC300] [D9A003AA]
 02   61,5 [A5E62572] [9806010E]
 03   84,2 [C66FD2E0] [BCDEA4CB]
 04   51,5 [0A48E829] [12065052]
 05   62,6 [79DE3359] [31C46BA4]
 06   96,1 [43682F55] [D7095952]
 07   67,6 [C46FF04A] [E6F85880]
 08   80,3 [3E5EA6F4] [BCCA04FF]
 09   37,4 [2A685E06] [C7BBFA8F]
 10   77,8 [A8FC8348] [897599BA]
 11   85,6 [ACC243D4] [13D5C8AB]
 12   97,6 [2A59D196] [936A2C3C]
 13   88,6 [5327181F] [3A4D3D81]
 14   86,7 [43D04FCE] [8625FCFF]
 15   51,3 [626D0C77] [AEF126D4]
 16   87,0 [96E307F4] [B33C2589]
 17   73,2 [36EBFCB5] [7DEDC8BF]
 18   61,2 [7BEDF9FF] [62F73295]
 19   69,2 [B7CC6F19] [B261A2B9]
 20   85,4 [5C2B7C5B] [04015F01]
Доп. информация: Јосиф Маринковић / Иосиф Маринкович
"Литургија св. Јована Златоустог / Литургия св. Иоанна Златоуста"
Хор Радио Телевизије Србије / Хор Радио и Телевидения Сербии
Диригент Бојан Суђић / Дирижор Боян Суджич
 
Не забывайте говорить Спасибо. Не уходите с раздачи!   
Торрент: Зарегистрирован [19 июн 2018, 15:36] Скачать торрент
Скачать торрент
[ Размер 12.04 КБ / Просмотров 8 ]
Статус:
Проверен
 
.torrent скачан: 0 раз
Хэш: e38705466066c70f7131602c7b7ea2d3bfccc1dc
Размер: 265.34 МБ (278 231 594 байт)
Стать Автором раздачи
 
 
Раздал: 0 байт
Скачал: 0 байт
Ратио: Inf.
Сообщения: 487468
Зарегистрирован: 17 апр 2014, 13:57


Вернуться в Православные песнопения (lossless)

Ресурс не предоставляет электронные версии произведений, а занимается лишь коллекционированием и каталогизацией ссылок, присылаемых и публикуемых на форуме нашими читателями. Если вы являетесь правообладателем какого-либо представленного материала и не желаете чтобы ссылка на него находилась в нашем каталоге, свяжитесь с нами и мы незамедлительно удалим её. Файлы для обмена на трекере предоставлены пользователями сайта, и администрация не несёт ответственности за их содержание. Просьба не заливать файлы, защищенные авторскими правами, а также файлы нелегального содержания!
cron