Неуловимые: Последний герой (Артем Аксененко) [2015, Мелодрама, криминал, HDTVRip]

 
 Статистика раздачи 
Размер: 1.38 ГБ   |  Зарегистрирован: 19 июн 2018, 12:45   |   .torrent скачан: 0 раз
Сидеров: 1  [ 0 байт/сек ]     Личеров: 0  [ 0 байт/сек ]  
  

Неуловимые: Последний герой (Артем Аксененко) [2015, Мелодрама, криминал, HDTVRip]

Сообщение Nakazhu » 19 июн 2018, 12:45

Неуловимые: Последний герой
Жанр: Мелодрама, криминал
Год выпуска: 2015
Продолжительность: 01:12:50
Режиссёр: Артем Аксененко
В ролях: Александр Петров (II), Александра Бортич, Иван Шахназаров, Илья Маланин, Анвар Халилулаев, Дмитрий Готсдинер, Владимир Яворский, Алёна Ивченко, Максим Браматкин, Денис Богданов, Андрей Блондер, Софья Лебедева, Сергей Пасько, Александр Яровицкий, Владимир Абрамкин, Юрий Брешин, Людмила Лебедева, Елена Серебрянская, Александр Пальчиков, Геннадий Суворов, Станислав Потапов, Антон Жбанов, Андрей Лебедев, Анна Афанасьева
Описание: Четверка главных героев во главе с Кирой продолжает свою борьбу с несправедливостью. Новая миссия: выследить яхту с крупной партией наркотиков и сдать всех ментам! И почти получилось. Вот только таинственный незнакомец неожиданно взрывает судно наркоторговцев на глазах у полиции и «неуловимых». Кто он — радикальный борец со злом или решил зачем-то подставить ребят? Пока друзья пытаются разобраться, тот сам находит Киру. Теперь она одна знает его мотивы… а еще понимает, что влюбилась по уши.
Доп. информация:
Автор релиза -
Источник аудио и видео для рипа - HDTV 1080i TS - моя запись с канала Наш Детектив HD



Сэмпл: https://yadi.sk/i/9LLo6VBY3Y7Kpk
Рекламы нет!
Качество видео: HDTVRip
Формат видео: AVI
Видео: XviD, 720x304 (2,35:1), 25.000 fps, 2245 kbps, 0.41 bit/pixel
Аудио: Русский AC3, 48000 Гц, 6ch, 448 kbps
Код: Выделить всё
Общее
Полное имя                               : D:\Неуловимые.Последний.Герой.2015.HDTVRip-ylnian.avi
Формат                                   : AVI
Формат/Информация                        : Audio Video Interleave
Размер файла                             : 1,38 Гбайт
Продолжительность                        : 1 ч. 12 м.
Общий поток                              : 2703 Кбит/сек
Программа кодирования                    : VirtualDubMod 1.5.10.3 | www.virtualdub-fr.org || (build 2550/release)
Библиотека кодирования                   : VirtualDubMod build 2550/release
Видео
Идентификатор                            : 0
Формат                                   : MPEG-4 Visual
Профиль формата                          : Advanced Simple@L5
Настройки формата                        : BVOP1
Параметр BVOP формата                    : 1
Параметр QPel формата                    : Нет
Параметр GMC формата                     : Без точки перехода
Параметр матрицы формата                 : Default (MPEG)
Идентификатор кодека                     : XVID
Идентификатор кодека/Подсказка           : XviD
Продолжительность                        : 1 ч. 12 м.
Битрейт                                  : 2245 Кбит/сек
Ширина                                   : 720 пикселей
Высота                                   : 304 пикселя
Соотношение сторон                       : 2,35:1
Частота кадров                           : 25,000 кадров/сек
Цветовое пространство                    : YUV
Субдискретизация насыщенности            : 4:2:0
Битовая глубина                          : 8 бит
Тип развёртки                            : Прогрессивная
Метод сжатия                             : С потерями
Бит/(Пиксели*Кадры)                      : 0.410
Размер потока                            : 1,14 Гбайт (83%)
Библиотека кодирования                   : XviD 67
Аудио
Идентификатор                            : 1
Формат                                   : AC-3
Формат/Информация                        : Audio Coding 3
Идентификатор кодека                     : 2000
Продолжительность                        : 1 ч. 12 м.
Вид битрейта                             : Постоянный
Битрейт                                  : 448 Кбит/сек
Каналы                                   : 6 каналов
Расположение каналов                     : Front: L C R, Side: L R, LFE
Частота                                  : 48,0 КГц
Частота кадров                           : 31,250 кадров/сек (1536 SPF)
Битовая глубина                          : 16 бит
Метод сжатия                             : С потерями
Размер потока                            : 233 Мбайт (17%)
Выравнивание                             : Разделение по промежуткам
Продолжительность промежутка             : 40  мс. (1,00 видеокадр)
Время предзагрузки промежутка            : 500  мс.
ServiceKind/String                       : Complete Main
Сравнение скриншотов с WEBDLRip - http://screenshotcomparison.com/comparison/115496 - в моём релизе выше чёткость и полнее кадр
 
Не забывайте говорить Спасибо. Не уходите с раздачи!   
Торрент: Зарегистрирован [19 июн 2018, 12:45] Для скачивания .torrent
необходима регистрация
Или скачать с помощью
MediaGet
Статус:
Проверен
 
.torrent скачан: 0 раз
Хэш: a64021ef4f437553031a0590921f5c53b7cc9576
Размер: 1.38 ГБ (1 476 448 256 байт)
Стать Автором раздачи
 
 
Раздал: 0 байт
Скачал: 0 байт
Ратио: Inf.
Сообщения: 487468
Зарегистрирован: 17 апр 2014, 13:57


  • Похожие торренты
    Ответы
    Просмотры
    Последнее сообщение

Вернуться в Отечественные фильмы 2011 - 2015 года

Ресурс не предоставляет электронные версии произведений, а занимается лишь коллекционированием и каталогизацией ссылок, присылаемых и публикуемых на форуме нашими читателями. Если вы являетесь правообладателем какого-либо представленного материала и не желаете чтобы ссылка на него находилась в нашем каталоге, свяжитесь с нами и мы незамедлительно удалим её. Файлы для обмена на трекере предоставлены пользователями сайта, и администрация не несёт ответственности за их содержание. Просьба не заливать файлы, защищенные авторскими правами, а также файлы нелегального содержания!
cron