[Александр Белов] На рыбалку. Река Самарга [2014, рыбалка, SATRip, RUS] (Видеоурок)

 
 Статистика раздачи 
Размер: 320.51 МБ   |  Зарегистрирован: 18 июн 2018, 22:49   |   .torrent скачан: 0 раз
Сидеров: 1  [ 0 байт/сек ]     Личеров: 0  [ 0 байт/сек ]  
  

[Александр Белов] На рыбалку. Река Самарга [2014, рыбалка, SATRip, RUS] (Видеоурок)

Сообщение Nakazhu » 18 июн 2018, 22:49

На рыбалку. Река Самарга
Автор: Александр Белов
Страна
: Россия
Тематика: рыбалка
Тип раздаваемого материала: Видеоурок
Продолжительность: 00:19:34
Год выпуска: 2014
Язык: Русский
Перевод: Не требуется
Описание: Река Самарга - самая северная река Приморья. Самарга берет начало на восточном склоне горной системы Сихотэ-Алинь, гора Купол 1558 м, и устремляется с гор к морю, впадая в Татарский пролив. Длина реки 218 км. Природа реки Самарга уникальная, дикая и труднодоступна. На Самарге отличная рыбалка. Водится здесь голец и ленок, сима и таймень, хариус.
Качество: SATRip
Формат: AVI
Видео кодек: XviD
Аудио кодек: MP3
Видео: MPEG4, XviD, 704x528 (4:3), 25.000 fps, 2 153 Kbps (0.232 bit/pixel)
Аудио: MP3, 48.0 KHz, 2 ch, 128 Kbps, CBR
General
Complete name : C:\Users\User\Downloads\На рыбалку. Река Самарга.avi
Format : AVI
Format/Info : Audio Video Interleave
File size : 321 MiB
Duration : 19mn 33s
Overall bit rate : 2 290 Kbps
Video
ID : 0
Format : MPEG-4 Visual
Format profile : Advanced Simple@L5
Format settings, BVOP : 2
Format settings, QPel : No
Format settings, GMC : No warppoints
Format settings, Matrix : Default (H.263)
Codec ID : XVID
Codec ID/Hint : XviD
Duration : 19mn 33s
Bit rate : 2 153 Kbps
Width : 704 pixels
Height : 528 pixels
Display aspect ratio : 4:3
Frame rate : 25.000 fps
Color space : YUV
Chroma subsampling : 4:2:0
Bit depth : 8 bits
Scan type : Progressive
Compression mode : Lossy
Bits/(Pixel*Frame) : 0.232
Stream size : 301 MiB (94%)
Writing library : XviD 73
Audio
ID : 1
Format : MPEG Audio
Format version : Version 1
Format profile : Layer 3
Codec ID : 55
Codec ID/Hint : MP3
Duration : 19mn 33s
Bit rate mode : Constant
Bit rate : 128 Kbps
Channel(s) : 2 channels
Sampling rate : 48.0 KHz
Compression mode : Lossy
Delay relative to video : 24ms
Stream size : 17.9 MiB (6%)
Alignment : Aligned on interleaves
Interleave, duration : 40 ms (1.00 video frame)
Interleave, preload duration : 504 ms
 
Не забывайте говорить Спасибо. Не уходите с раздачи!   
Торрент: Зарегистрирован [18 июн 2018, 22:49] Скачать торрент
Скачать торрент
[ Размер 13 КБ / Просмотров 3 ]
Статус:
Проверен
 
.torrent скачан: 0 раз
Хэш: a18b1cd8daa7a9d0f0367f989434b8579cb82c25
Размер: 320.51 МБ (336 078 342 байт)
Стать Автором раздачи
 
 
Раздал: 0 байт
Скачал: 0 байт
Ратио: Inf.
Сообщения: 487468
Зарегистрирован: 17 апр 2014, 13:57


  • Похожие торренты
    Ответы
    Просмотры
    Последнее сообщение

Вернуться в Рыболовство и подводная охота

Ресурс не предоставляет электронные версии произведений, а занимается лишь коллекционированием и каталогизацией ссылок, присылаемых и публикуемых на форуме нашими читателями. Если вы являетесь правообладателем какого-либо представленного материала и не желаете чтобы ссылка на него находилась в нашем каталоге, свяжитесь с нами и мы незамедлительно удалим её. Файлы для обмена на трекере предоставлены пользователями сайта, и администрация не несёт ответственности за их содержание. Просьба не заливать файлы, защищенные авторскими правами, а также файлы нелегального содержания!
cron