[TR24][OF] Deschain - Grit Part I: Vigilance - 2013 (Atmospheric Black Metal, Progressive Black Metal, Melodic Black Metal)

 
 Статистика раздачи 
Размер: 425.75 МБ   |  Зарегистрирован: 17 июн 2018, 01:36   |   .torrent скачан: 0 раз
Сидеров: 1  [ 0 байт/сек ]     Личеров: 0  [ 0 байт/сек ]  
  

[TR24][OF] Deschain - Grit Part I: Vigilance - 2013 (Atmospheric Black Metal, Progressive Black Metal, Melodic Black Metal)

Сообщение Nakazhu » 17 июн 2018, 01:36

Deschain / Grit Part I: Vigilance
Формат записи/Источник записи: [TR24][OF]
Наличие водяных знаков: Нет
Год издания/переиздания диска: 2013
Жанр: Atmospheric Black Metal, Progressive Black Metal, Melodic Black Metal
Издатель (лейбл): Independent
Продолжительность: 37:22
Источник (релизер): Bandcamp
Наличие сканов в содержимом раздачи: Нет
Контейнер: FLAC (*.flac)
Тип рипа: tracks
Разрядность: 24/44,1
Формат: FLAC
Количество каналов: 2.0
Треклист:
1. Beacon of the West (14:45)
2. Vigilance (10:41)
3. Blade and Bone (11:55)
Код: Выделить всё
foobar2000 1.4 beta 13 / Dynamic Range Meter 1.1.1
log date: 2018-06-16 13:00:56
--------------------------------------------------------------------------------
Analyzed: Deschain / Grit Part I: Vigilance
--------------------------------------------------------------------------------
DR         Peak         RMS     Duration Track
--------------------------------------------------------------------------------
DR9       -0.30 dB   -11.02 dB     14:46 01-Beacon of the West
DR8       -0.30 dB    -9.09 dB     10:41 02-Vigilance
DR8       -0.30 dB    -9.76 dB     11:55 03-Blade and Bone
--------------------------------------------------------------------------------
Number of tracks:  3
Official DR value: DR8
Samplerate:        44100 Hz
Channels:          2
Bits per sample:   24
Bitrate:           1599 kbps
Codec:             FLAC
================================================================================
 
Не забывайте говорить Спасибо. Не уходите с раздачи!   
Торрент: Зарегистрирован [17 июн 2018, 01:36] Скачать торрент
Скачать торрент
[ Размер 33.92 КБ / Просмотров 2 ]
Статус:
Проверен
 
.torrent скачан: 0 раз
Хэш: 93e70b27d6bf41c71bf1030cd6c2c8bd457d26df
Размер: 425.75 МБ (446 427 176 байт)
Стать Автором раздачи
 
 
Раздал: 0 байт
Скачал: 0 байт
Ратио: Inf.
Сообщения: 487468
Зарегистрирован: 17 апр 2014, 13:57


  • Похожие торренты
    Ответы
    Просмотры
    Последнее сообщение

Вернуться в Зарубежный рок (Hi-Res stereo)

Ресурс не предоставляет электронные версии произведений, а занимается лишь коллекционированием и каталогизацией ссылок, присылаемых и публикуемых на форуме нашими читателями. Если вы являетесь правообладателем какого-либо представленного материала и не желаете чтобы ссылка на него находилась в нашем каталоге, свяжитесь с нами и мы незамедлительно удалим её. Файлы для обмена на трекере предоставлены пользователями сайта, и администрация не несёт ответственности за их содержание. Просьба не заливать файлы, защищенные авторскими правами, а также файлы нелегального содержания!
cron