(Духовные песнопения и музыка (lossless)) [CD] Хор Радио и Телевидения Сербии - Литургия св. Иоанна Златоуста - 1999, FLAC (image+.cue), lossless

 
 Статистика раздачи 
Размер: 187 МБ   |  Зарегистрирован: 17 июн 2018, 01:06   |   .torrent скачан: 0 раз
Сидеров: 1  [ 0 байт/сек ]     Личеров: 0  [ 0 байт/сек ]  
  

(Духовные песнопения и музыка (lossless)) [CD] Хор Радио и Телевидения Сербии - Литургия св. Иоанна Златоуста - 1999, FLAC (image+.cue), lossless

Сообщение Nakazhu » 17 июн 2018, 01:06

Хор Радио и Телевидения Сербии / Литургия св. Иоанна Златоуста
Жанр: Духовные песнопения и музыка (lossless)
Носитель: CD
Страна-производитель диска (релиза): Сербия
Год издания: 1999
Издатель (лейбл): ПГП - РТС
Номер по каталогу: ЦД 430800
Аудиокодек: FLAC (*.flac)
Тип рипа: image+.cue
Битрейт аудио: lossless
Продолжительность: 43:54:30
Источник (релизер): ПГП - РТС
Наличие сканов в содержимом раздачи: да
Треклист:
"Хор РТС"
"Корнелије Станковић - Литургија св. Јована Златоустог"
01. "Слава: Благослови душе моја Господа (Пс. 102:1)"
02. "Слава: Јединородниј Сине"
03. "Придите поклонимсја"
04. "Свјатиј Боже"
05. "Алилуја"
06. "Сугуба јектенија"
07. "Херувимска песма"
08. "Оца и Сина"
09. "Канон евхаристије"
10. "Достојно јест"
11. "Једин свјат"
12. "Причасна песма"
13. "Благословен грјадиј"
14. "Видјехом свјет истиниј"
15. "Да исполњатсја уста наша"
16. "Буди имја Господње"
Код: Выделить всё
PERFORMER "Хор РТС"
TITLE "Корнелије Станковић - Литургија св. Јована Златоустог"
FILE "Хор РТС - Корнелије Станковић - Литургија св. Јована Златоустог.flac" WAVE
  TRACK 01 AUDIO
    TITLE "Слава: Благослови душе моја Господа (Пс. 102:1)"
    INDEX 01 00:00:00
  TRACK 02 AUDIO
    TITLE "Слава: Јединородниј Сине"
    INDEX 01 02:54:10
  TRACK 03 AUDIO
    TITLE "Придите поклонимсја"
    INDEX 01 04:45:35
  TRACK 04 AUDIO
    TITLE "Свјатиј Боже"
    INDEX 01 06:08:00
  TRACK 05 AUDIO
    TITLE "Алилуја"
    INDEX 01 08:55:70
  TRACK 06 AUDIO
    TITLE "Сугуба јектенија"
    INDEX 01 11:08:32
  TRACK 07 AUDIO
    TITLE "Херувимска песма"
    INDEX 01 12:57:65
  TRACK 08 AUDIO
    TITLE "Оца и Сина"
    INDEX 01 22:54:12
  TRACK 09 AUDIO
    TITLE "Канон евхаристије"
    INDEX 01 23:32:72
  TRACK 10 AUDIO
    TITLE "Достојно јест"
    INDEX 01 31:28:42
  TRACK 11 AUDIO
    TITLE "Једин свјат"
    INDEX 01 36:03:07
  TRACK 12 AUDIO
    TITLE "Причасна песма"
    INDEX 01 36:44:67
  TRACK 13 AUDIO
    TITLE "Благословен грјадиј"
    INDEX 01 41:28:25
  TRACK 14 AUDIO
    TITLE "Видјехом свјет истиниј"
    INDEX 01 41:51:47
  TRACK 15 AUDIO
    TITLE "Да исполњатсја уста наша"
    INDEX 01 42:34:37
  TRACK 16 AUDIO
    TITLE "Буди имја Господње"
    INDEX 01 43:54:30
Доп. информация: Корнелије Станковић / Корнелиэ Станкович
"Литургија св. Јована Златоустог / Литургия св. Иоанна Златоуста"
Хор Радио Телевизије Србије / Хор Радио и Телевидения Сербии
Диригент Бојан Суђић / Дирижор Боян Суджич
 
Не забывайте говорить Спасибо. Не уходите с раздачи!   
Торрент: Зарегистрирован [17 июн 2018, 01:06] Скачать торрент
Скачать торрент
[ Размер 15.06 КБ / Просмотров 8 ]
Статус:
Проверен
 
.torrent скачан: 0 раз
Хэш: 18c33c2efac6e9ce43f53e7c7d378c10d44771c3
Размер: 187 МБ (196 079 142 байт)
Стать Автором раздачи
 
 
Раздал: 0 байт
Скачал: 0 байт
Ратио: Inf.
Сообщения: 487468
Зарегистрирован: 17 апр 2014, 13:57


Вернуться в Православные песнопения (lossless)

Ресурс не предоставляет электронные версии произведений, а занимается лишь коллекционированием и каталогизацией ссылок, присылаемых и публикуемых на форуме нашими читателями. Если вы являетесь правообладателем какого-либо представленного материала и не желаете чтобы ссылка на него находилась в нашем каталоге, свяжитесь с нами и мы незамедлительно удалим её. Файлы для обмена на трекере предоставлены пользователями сайта, и администрация не несёт ответственности за их содержание. Просьба не заливать файлы, защищенные авторскими правами, а также файлы нелегального содержания!
cron