Ширли-мырли (1995) WEB-DL 1080p от OlLanDGroup

 
 Статистика раздачи 
Размер: 11.61 ГБ   |  Зарегистрирован: 16 июн 2018, 19:04   |   .torrent скачан: 0 раз
Сидеров: 1  [ 0 байт/сек ]     Личеров: 0  [ 0 байт/сек ]  
  

Ширли-мырли (1995) WEB-DL 1080p от OlLanDGroup

Сообщение Lester » 16 июн 2018, 19:04

Ширли-мырли
«Ширли мырли, шир манирли, шир матыркин, мур-мур-кин»



Год выпуска: 1995
Страна: Россия
Производство: Мосфильм
Жанр: Комедия

Режиссёр: Владимир Меньшов
В ролях: Валерий Гаркалин, Вера Алентова, Инна Чурикова, Игорь Угольников, Армен Джигарханян, Олег Табаков, Леонид Куравлев, Нонна Мордюкова, Любовь Полищук, Сергей Баталов, Лев Борисов, Сергей Арцибашев, Михаил Кокшенов, Александр Панкратов-Черный, Александр Ворошило, Инна Кара-Моско, Евгений Герчаков, Всеволод Санаев, Владимир Меньшов, Нина Алисова, Алексей Булдаков, Евгений Весник, Ролан Быков, Олег Ефремов, Аркадий Коваль.

Перевод: Не требуется
Субтитры: Нет
Реклама: Отсутствует

Описание: Невероятная история о братьях — близнецах, никогда прежде не слыхавших друг о друге. Один из них, в младенчестве подброшенный в табор, стал цыганским бароном; другой рос в детском доме — и теперь он еврей — музыкант с мировым именем; третьего воспитывала родная тетя, и домашнее воспитание принесло свои плоды: он стал авторитетнейшим в СНГ вором и аферистом.

Именно он, благодаря своим талантам, обводит вокруг пальца главу мафии и похищает фантастический алмаз «Спаситель России». Стоимость найденного в Сибири драгоценного камня такова, что вся страна сможет 3 года отдыхать на Канарских островах. Его размерами потрясено мировое сообщество. Английская королева рыдает, закрывшись в спальне.

Южно — африканские шахтеры поклялись не выходить на поверхность, пока не отыщут более крупный самородок… А в России сенсация следует за сенсацией! Находка века породила ограбление века! Мир, затаив дыхание, следит за стремительной сменой событий…


Качество: WEB-DL 1080p
Продолжительность: 02:15:16

Формат: MKV
Видео кодек: MPEG-4 AVC
Аудио кодек: AС3
Видео: 1480x1080 (1,370), 25.000 fps, x264 ~12000 kbps avg, 0.300 bit/pixel
Аудио: 48 kHz, AC3, 3/2 (L,C,R,l,r) + LFE ch, ~384.00 kbps avg


Релиз от:

Общее
Уникальный идентификатор : 131521640232279277684683158796193785410 (0x62F22582B773B3B3D9F944C215A06642)
Полное имя : D:ВидеоShirli-myrli.1995.WEB-DL1080p.OlLanDGroup.mkv
Формат : Matroska
Версия формата : Version 4 / Version 2
Размер файла : 11,6 Гбайт
Продолжительность : 2 ч. 15 м.
Общий поток : 12,3 Мбит/сек
Название фильма : Shirli-myrli.1995.WEB-DL1080p.OlLanDGroup
Дата кодирования : UTC 2018-06-16 11:25:14
Программа кодирования : mkvmerge v23.0.0 ('The Bride Said No') 64-bit
Библиотека кодирования : libebml v1.3.6 + libmatroska v1.4.9
DURATION : 02:15:14.880000000
NUMBER_OF_FRAMES : 253590
NUMBER_OF_BYTES : 389514240
_STATISTICS_WRITING_APP : mkvmerge v23.0.0 ('The Bride Said No') 64-bit
_STATISTICS_WRITING_DATE_UTC : 2018-06-16 11:25:14
_STATISTICS_TAGS : BPS DURATION NUMBER_OF_FRAMES NUMBER_OF_BYTES
Attachment : Yes

Видео
Идентификатор : 1
Формат : AVC
Формат/Информация : Advanced Video Codec
Профиль формата : High@L4.1
Параметр CABAC формата : Да
Параметр ReFrames формата : 4 кадра
Идентификатор кодека : V_MPEG4/ISO/AVC
Продолжительность : 2 ч. 15 м.
Битрейт : 12,0 Мбит/сек
Ширина : 1480 пикселей
Высота : 1080 пикселей
Соотношение сторон : 1,370
Режим частоты кадров : Постоянный
Частота кадров : 25,000 кадров/сек
Цветовое пространство : YUV
Субдискретизация насыщенности : 4:2:0
Битовая глубина : 8 бит
Тип развёртки : Прогрессивная
Бит/(Пиксели*Кадры) : 0.300
Размер потока : 11,0 Гбайт (95%)
Библиотека кодирования : x264 core 148 r2708 86b7198
Настройки программы : cabac=1 / ref=3 / deblock=1:1:1 / analyse=0x3:0x113 / me=hex / subme=7 / psy=1 / psy_rd=1.00:0.00 / mixed_ref=1 / me_range=16 / chroma_me=1 / trellis=1 / 8x8dct=1 / cqm=0 / deadzone=21,11 / fast_pskip=1 / chroma_qp_offset=-2 / threads=12 / lookahead_threads=2 / sliced_threads=0 / nr=0 / decimate=1 / interlaced=0 / bluray_compat=0 / constrained_intra=0 / bframes=3 / b_pyramid=2 / b_adapt=1 / b_bias=0 / direct=1 / weightb=1 / open_gop=0 / weightp=2 / keyint=250 / keyint_min=25 / scenecut=40 / intra_refresh=0 / rc_lookahead=40 / rc=abr / mbtree=1 / bitrate=12000 / ratetol=1.0 / qcomp=0.60 / qpmin=0 / qpmax=69 / qpstep=4 / vbv_maxrate=62500 / vbv_bufsize=78125 / nal_hrd=none / filler=0 / ip_ratio=1.40 / aq=1:1.00
Default : Да
Forced : Нет
Основные цвета : BT.709
Характеристики трансфера : BT.709
Коэффициенты матрицы : BT.709

Аудио
Идентификатор : 2
Формат : AC-3
Формат/Информация : Audio Coding 3
Расширение режима : CM (complete main)
Параметр Endianness формата : Big
Идентификатор кодека : A_AC3
Продолжительность : 2 ч. 15 м.
Вид битрейта : Постоянный
Битрейт : 384 Кбит/сек
Каналы : 6 каналов
Расположение каналов : Front: L C R, Side: L R, LFE
Частота : 48,0 КГц
Битовая глубина : 16 бит
Метод сжатия : С потерями
Задержка видео : -20 мс.
Размер потока : 372 Мбайт (3%)
Заголовок : AC3 5.1 @ 384 kbps
Язык : Russian
Default : Да
Forced : Нет

Меню
00:00:00.000 : ru:Глава 1
00:06:03.000 : ru:Глава 2
00:09:58.000 : ru:Глава 3
00:16:08.000 : ru:Глава 4
00:22:26.000 : ru:Глава 5
00:28:32.000 : ru:Глава 6
00:33:57.000 : ru:Глава 7
00:39:39.000 : ru:Глава 8
00:47:34.000 : ru:Глава 9
00:55:19.000 : ru:Глава 10
01:00:22.000 : ru:Глава 11
01:08:26.000 : ru:Глава 12
01:15:09.000 : ru:Глава 13
01:19:41.000 : ru:Глава 14
01:25:47.000 : ru:Глава 15
01:31:54.000 : ru:Глава 16
01:38:36.000 : ru:Глава 17
01:43:21.000 : ru:Глава 18
01:48:34.000 : ru:Глава 19
01:53:42.000 : ru:Глава 20
01:58:16.000 : ru:Глава 21
02:03:48.000 : ru:Глава 22
02:10:10.000 : ru:Глава 23

 
Не забывайте говорить Спасибо. Не уходите с раздачи!   
Торрент: Зарегистрирован [16 июн 2018, 19:04] Для скачивания .torrent
необходима регистрация
Или скачать с помощью
MediaGet
Статус:
Проверен
 
.torrent скачан: 0 раз
Хэш: 2eefedd8abb27094109ed2ad77d09faa63c531ab
Размер: 11.61 ГБ (12 461 327 691 байт)
Стать Автором раздачи
 
 
Раздал: 100 ГБ
Скачал: 0 байт
Ратио: Seed.
Сообщения: 120650
Зарегистрирован: 09 апр 2015, 23:00


  • Похожие торренты
    Ответы
    Просмотры
    Последнее сообщение

Вернуться в Отечественные фильмы 1992-2000 года

Ресурс не предоставляет электронные версии произведений, а занимается лишь коллекционированием и каталогизацией ссылок, присылаемых и публикуемых на форуме нашими читателями. Если вы являетесь правообладателем какого-либо представленного материала и не желаете чтобы ссылка на него находилась в нашем каталоге, свяжитесь с нами и мы незамедлительно удалим её. Файлы для обмена на трекере предоставлены пользователями сайта, и администрация не несёт ответственности за их содержание. Просьба не заливать файлы, защищенные авторскими правами, а также файлы нелегального содержания!
cron