Жри и беги / Ешь и беги / Eat and Run (Кристофер Харт / Christopher Hart) [1987, США, комедия, фантастика, DVDRip] DUB (Варус) + AVO (Леонид Володарский) + Original Eng

 
 Статистика раздачи 
Размер: 1.68 ГБ   |  Зарегистрирован: 16 июн 2018, 17:20   |   .torrent скачан: 0 раз
Сидеров: 1  [ 0 байт/сек ]     Личеров: 0  [ 0 байт/сек ]  
  

Жри и беги / Ешь и беги / Eat and Run (Кристофер Харт / Christopher Hart) [1987, США, комедия, фантастика, DVDRip] DUB (Варус) + AVO (Леонид Володарский) + Original Eng

Сообщение Nakazhu » 16 июн 2018, 17:20

Жри и беги / Ешь и беги / Eat and Run
«A comedy with taste»
Страна: США
Жанр: комедия, фантастика
Год выпуска: 1987
Продолжительность: 01:20:25
Перевод: Дубляж (Варус видео)
Перевод: Авторский (одноголосый закадровый) Леонид Володарский
Субтитры: нет
Режиссер: Кристофер Харт / Christopher Hart
В ролях: Рон Сильвер, Sharon Sharth, Пэт Райан, Джон Дж. Флеминг, Derek Murcott, Роберт Сильвер, Мими Чеккини, Tony Moundroukas, Фрэнк Настаси, Peter Waldren
Описание: Пришелец-гуманоид прибывает на Землю и вскоре обнаруживает, что ему жуть как нравятся итальянцы…. в качестве еды. Умерить аппетиты пришельца может только бестолковый детектив МакСорли, жаль только, что кроме него в теорию инопланетного итальяноедства никто не верит.
Доп. информация: Дорожка с Л. Володарским синхронизирована и наложена ale_x2008 при помощи Adobe Audition, Sony Vegas и VirtualDubMod.
За предоставленную дорожку благодарим - Воронеж-1
Дорожку с переводом Варус предоставил v182182
За синхрон спасибо xfiles
Релиз
Сэмпл: https://yadi.sk/i/braFHvnz3J7X4J
Качество видео: DVDRip
Формат видео: AVI
Видео: 720x544 (1.32:1), 25 fps, XviD MPEG-4 ~2366 kbps avg, 0.24 bit/pixel
Аудио: AC3 Dolby Digital, 48000Hz 2/0 (L,R) ch , 192.00 kbps avg
Аудио 2: AC3 Dolby Digital, 48000Hz 2/0 (L,R) ch (mono), 192.00 kbps avg AVO (отдельно)
Аудио 3: AC3 Dolby Digital, 48000Hz 2/0 (L,R) ch, 192.00 kbps avg Eng (отдельно)
Жри и беги (Eat and Run) [by by Edich2] fix\Eat and Run.avi
Format : AVI
Format/Info : Audio Video Interleave
File size : 1.44 GiB
Duration : 1 h 20 min
Overall bit rate : 2 568 kb/s
Movie name : Жри и беги (Eat and Run) [by by Edich2] fix
Director : by ale_x2008
Writing application : VirtualDubMod 1.5.10.2 (build 2540/release)
Copyright : Edich2
Comment : RuTracker.org
Video
ID : 0
Format : MPEG-4 Visual
Format profile : Advanced Simple@L5
Format settings : BVOP1 / Custom Matrix
Format settings, BVOP : 1
Format settings, QPel : No
Format settings, GMC : No warppoints
Format settings, Matrix : Custom
Codec ID : XVID
Codec ID/Hint : XviD
Duration : 1 h 20 min
Bit rate : 2 367 kb/s
Width : 720 pixels
Height : 544 pixels
Display aspect ratio : 4:3
Frame rate : 25.000 FPS
Color space : YUV
Chroma subsampling : 4:2:0
Bit depth : 8 bits
Scan type : Progressive
Compression mode : Lossy
Bits/(Pixel*Frame) : 0.242
Stream size : 1.33 GiB (92%)
Writing library : XviD 1.2.1 (UTC 2008-12-04)
Audio
ID : 1
Format : AC-3
Format/Info : Audio Coding 3
Codec ID : 2000
Duration : 1 h 20 min
Bit rate mode : Constant
Bit rate : 192 kb/s
Channel(s) : 1 channel
Channel positions : Front: C
Sampling rate : 48.0 kHz
Frame rate : 31.250 FPS (1536 SPF)
Bit depth : 16 bits
Compression mode : Lossy
Stream size : 110 MiB (7%)
Alignment : Split accross interleaves
Interleave, duration : 40 ms (1.00 video frame)
Interleave, preload duratio : 500 ms
Service kind : Complete Main


ТОРРЕНТ ПЕРЕЗАЛИТ
ДОБАВЛЕНА ДОРОЖКА С ПЕРЕВОДОМ ВАРУС ВИДЕО
 
Не забывайте говорить Спасибо. Не уходите с раздачи!   
Торрент: Зарегистрирован [16 июн 2018, 17:20] Скачать торрент
Скачать торрент
[ Размер 17.38 КБ / Просмотров 2 ]
Статус:
Проверен
 
.torrent скачан: 0 раз
Хэш: 5fb6e30da74ea2a3e300c83d918ef2f30f132bf0
Размер: 1.68 ГБ (1 799 182 816 байт)
Стать Автором раздачи
 
 
Раздал: 0 байт
Скачал: 0 байт
Ратио: Inf.
Сообщения: 487468
Зарегистрирован: 17 апр 2014, 13:57


  • Похожие торренты
    Ответы
    Просмотры
    Последнее сообщение

Вернуться в Зарубежные фильмы до 1990 года

Ресурс не предоставляет электронные версии произведений, а занимается лишь коллекционированием и каталогизацией ссылок, присылаемых и публикуемых на форуме нашими читателями. Если вы являетесь правообладателем какого-либо представленного материала и не желаете чтобы ссылка на него находилась в нашем каталоге, свяжитесь с нами и мы незамедлительно удалим её. Файлы для обмена на трекере предоставлены пользователями сайта, и администрация не несёт ответственности за их содержание. Просьба не заливать файлы, защищенные авторскими правами, а также файлы нелегального содержания!
cron