Год, опасный для жизни / The Year of Living Dangerously (Питер Уир / Peter Weir) [1982, США, драма, WEB-DLRip] AVO (А.Михалев)

 
 Статистика раздачи 
Размер: 1.46 ГБ   |  Зарегистрирован: 15 июн 2018, 20:56   |   .torrent скачан: 0 раз
Сидеров: 1  [ 0 байт/сек ]     Личеров: 0  [ 0 байт/сек ]  
  

Год, опасный для жизни / The Year of Living Dangerously (Питер Уир / Peter Weir) [1982, США, драма, WEB-DLRip] AVO (А.Михалев)

Сообщение Nakazhu » 15 июн 2018, 20:56

Год, опасный для жизни / The Year of Living Dangerously
Страна: США
Жанр: драма
Год выпуска: 1982
Продолжительность: 01:54:39
Перевод: Авторский (одноголосый закадровый) А.Михалев
Субтитры: нет
Режиссер: Питер Уир / Peter Weir
В ролях: Мэл Гибсон, Сигурни Уивер, Линда Хант, Майкл Мерфи, Билл Керр, Ноэль Феррье, Бембол Роко, Пол Сонккила, Али Нур, Доминадор Робридильо
Описание: Австралийский репортер Гай Хэмилтон находится на задании в политически нестабильной Индонезии, где вместе с фотографом он изобличает коррупцию в правительстве. Но связь Хэмилтона с красивой атташе британского посольства Джилл Брайант сильно осложняет ему жизнь. Пока их бурный роман становится все более и более страстным, все вокруг них катится к гражданской войне. Джилл советует уехать, но репортер жаждет обнародовать правду.
Доп. информация: За подогнанную и обработанную дорожку с переводом Алексея Михалева(из этой раздачи http://rutracker.org/forum/viewtopic.php?t=5563717 ) спасибо PUSSEN
За рип большое спасибо teko
Сэмпл: http://sendfile.su/1425697
Качество видео: WEB-DLRip Исходник WEB-DL 720p (Спасибо PUNCHLINE79797)
Формат видео: AVI
Видео: 704x400 (1.76:1), 23.976 fps, XviD build 73 ,2151 kbps avg, 0.32 bit/pixel
Аудио: 48 kHz, AC3 Dolby Digital,2/0 (L,R) ch, 192 kbps
Код: Выделить всё
Общее
Полное имя                               : D:\The.Year.of.Living.Dangerously(1982)Михалев.avi
Формат                                   : AVI
Формат/Информация                        : Audio Video Interleave
Размер файла                             : 1,46 Гбайт
Продолжительность                        : 1 ч. 54 м.
Общий поток                              : 1819 Кбит/сек
Программа кодирования                    : VirtualDubMod 1.5.10.2 (build 2540/release)
Библиотека кодирования                   : VirtualDubMod build 2540/release
Видео
Идентификатор                            : 0
Формат                                   : MPEG-4 Visual
Профиль формата                          : Advanced Simple@L5
Параметр BVOP формата                    : 2
Параметр QPel формата                    : Нет
Параметр GMC формата                     : Без точки перехода
Параметр матрицы формата                 : Выборочная
Идентификатор кодека                     : XVID
Идентификатор кодека/Подсказка           : XviD
Продолжительность                        : 1 ч. 54 м.
Битрейт                                  : 1618 Кбит/сек
Ширина                                   : 704 пикселя
Высота                                   : 400 пикселей
Соотношение сторон                       : 16:9
Частота кадров                           : 23,976 кадра/сек
Цветовое пространство                    : YUV
Субдискретизация насыщенности            : 4:2:0
Битовая глубина                          : 8 бит
Тип развёртки                            : Прогрессивная
Метод сжатия                             : С потерями
Бит/(Пиксели*Кадры)                      : 0.240
Размер потока                            : 1,30 Гбайт (89%)
Библиотека кодирования                   : XviD 73
Аудио
Идентификатор                            : 1
Формат                                   : AC-3
Формат/Информация                        : Audio Coding 3
Расширение режима                        : CM (complete main)
Параметр Endianness формата              : Big
Идентификатор кодека                     : 2000
Продолжительность                        : 1 ч. 54 м.
Вид битрейта                             : Постоянный
Битрейт                                  : 192 Кбит/сек
Каналы                                   : 2 канала
Расположение каналов                     : Front: L R
Частота                                  : 48,0 КГц
Метод сжатия                             : С потерями
Размер потока                            : 157 Мбайт (11%)
Выравнивание                             : Разделение по промежуткам
Продолжительность промежутка             : 42  мс. (1,00 видеокадр)
Время предзагрузки промежутка            : 500  мс.
[url=http://[URL=http://fastpic.ru/view/105/2018/0615/a920d8f59dbfb20304c21e55b29e244c.jpg.html][/url]
 
Не забывайте говорить Спасибо. Не уходите с раздачи!   
Торрент: Зарегистрирован [15 июн 2018, 20:56] Скачать торрент
Скачать торрент
[ Размер 15.17 КБ / Просмотров 2 ]
Статус:
Проверен
 
.torrent скачан: 0 раз
Хэш: 366b2ac3c2c372cc5d88c55e6e37f0ecd57471bb
Размер: 1.46 ГБ (1 564 526 592 байт)
Стать Автором раздачи
 
 
Раздал: 0 байт
Скачал: 0 байт
Ратио: Inf.
Сообщения: 487468
Зарегистрирован: 17 апр 2014, 13:57


  • Похожие торренты
    Ответы
    Просмотры
    Последнее сообщение

Вернуться в Зарубежные фильмы до 1990 года

Ресурс не предоставляет электронные версии произведений, а занимается лишь коллекционированием и каталогизацией ссылок, присылаемых и публикуемых на форуме нашими читателями. Если вы являетесь правообладателем какого-либо представленного материала и не желаете чтобы ссылка на него находилась в нашем каталоге, свяжитесь с нами и мы незамедлительно удалим её. Файлы для обмена на трекере предоставлены пользователями сайта, и администрация не несёт ответственности за их содержание. Просьба не заливать файлы, защищенные авторскими правами, а также файлы нелегального содержания!
cron