Хороший день (2017) WEBRip-AVC

 
 Статистика раздачи 
Размер: 172.83 МБ   |  Зарегистрирован: 14 июн 2018, 22:14   |   .torrent скачан: 0 раз
Сидеров: 1  [ 0 байт/сек ]     Личеров: 0  [ 0 байт/сек ]  
  

Хороший день (2017) WEBRip-AVC

Сообщение Lester » 14 июн 2018, 22:14

Информация о фильме
Название: Хороший день
Год выхода: 2017
Жанр: короткометражка, комедия
Режиссер: Даша Чаруша
В ролях: Евгений Сангаджиев, Аглая Тарасова, Сабина Ахмедова, Константин Столяров, Ольга Торгашова, Дэниэл Барнс, Галина Стаханова, Александр Федин, Сергей Доденко, Артем Маликов

О фильме: Проблемы молодого водителя Абдула, выходца из Средней Азии, резко отступают на дальний план, когда в его желтое такси врывается беременная оторва Лена, у которой вот-вот отойдут воды. Сначала юноше приходится научиться отзываться на имя «Мишаня» (Лене так привычней), а потом — принимать роды в экстремальных условиях, то есть в привычной всякому москвичу пробке. Участникам дорожного затора, включая одного иностранца и одну пенсионерку, также предстоит принять участие в операции.



Производство: Versus Pictures (Россия)
Продолжительность: 00:18:09
Перевод: не требуется

Качество: WEBRip-AVC
Видео: h.264, 720х304, 1200 kb/s, 25.000 FPS
Звук: MP3, 128 kb/s, 2 channels, 48.0 kHz

Unique ID : 223321760977027976205800122409239005868 (0xA80234E85176D56196F176BEBB994AAC)
Complete name : D:uTorrentgood_day_2017.rutor.mkv
Format : Matroska
Format version : Version 2
File size : 173 MiB
Duration : 18 min 9 s
Overall bit rate : 1 330 kb/s
Encoded date : UTC 2018-06-13 21:53:53
Writing application : mkvmerge v6.9.1 ('Blue Panther') 32bit built on Apr 18 2014 18:15:44
Writing library : libebml v1.3.0 + libmatroska v1.4.1

Video
ID : 1
Format : AVC
Format/Info : Advanced Video Codec
Format profile : High@L4.1
Format settings : CABAC / 5 Ref Frames
Format settings, CABAC : Yes
Format settings, ReFrames : 5 frames
Codec ID : V_MPEG4/ISO/AVC
Duration : 18 min 9 s
Bit rate : 1 200 kb/s
Width : 720 pixels
Height : 304 pixels
Display aspect ratio : 2.35:1
Frame rate mode : Constant
Frame rate : 25.000 FPS
Color space : YUV
Chroma subsampling : 4:2:0
Bit depth : 8 bits
Scan type : Progressive
Bits/(Pixel*Frame) : 0.219
Stream size : 153 MiB (88%)
Writing library : x264 core 148 r2638 7599210
Encoding settings : cabac=1 / ref=5 / deblock=1:-3:-3 / analyse=0x3:0x133 / me=umh / subme=10 / psy=1 / psy_rd=1.00:0.10 / mixed_ref=1 / me_range=32 / chroma_me=1 / trellis=2 / 8x8dct=1 / cqm=0 / deadzone=21,11 / fast_pskip=0 / chroma_qp_offset=-3 / threads=6 / lookahead_threads=1 / sliced_threads=0 / nr=0 / decimate=1 / interlaced=0 / bluray_compat=0 / constrained_intra=0 / bframes=10 / b_pyramid=2 / b_adapt=2 / b_bias=0 / direct=3 / weightb=1 / open_gop=0 / weightp=2 / keyint=250 / keyint_min=25 / scenecut=40 / intra_refresh=0 / rc_lookahead=50 / rc=2pass / mbtree=1 / bitrate=1200 / ratetol=1.0 / qcomp=0.60 / qpmin=0 / qpmax=69 / qpstep=4 / cplxblur=20.0 / qblur=0.5 / ip_ratio=1.40 / aq=1:1.00
Default : Yes
Forced : No

Audio
ID : 2
Format : MPEG Audio
Format version : Version 1
Format profile : Layer 3
Codec ID : A_MPEG/L3
Codec ID/Hint : MP3
Duration : 18 min 9 s
Bit rate mode : Constant
Bit rate : 128 kb/s
Channel(s) : 2 channels
Sampling rate : 48.0 kHz
Frame rate : 41.667 FPS (1152 SPF)
Compression mode : Lossy
Stream size : 16.6 MiB (10%)
Writing library : LAME3.99r
Encoding settings : -m s -V 4 -q 2 -lowpass 17 -b 128
Default : Yes
Forced : No
 
Не забывайте говорить Спасибо. Не уходите с раздачи!   
Торрент: Зарегистрирован [14 июн 2018, 22:14] Скачать торрент
Скачать торрент
[ Размер 14.6 КБ / Просмотров 5 ]
Статус:
Проверен
 
.torrent скачан: 0 раз
Хэш: af94060f273c5e8d4cb58177c5eb34490f9ffb60
Размер: 172.83 МБ (181 226 542 байт)
Стать Автором раздачи
 
 
Раздал: 100 ГБ
Скачал: 0 байт
Ратио: Seed.
Сообщения: 121533
Зарегистрирован: 09 апр 2015, 23:00


  • Похожие торренты
    Ответы
    Просмотры
    Последнее сообщение

Вернуться в Отечественное кино

Ресурс не предоставляет электронные версии произведений, а занимается лишь коллекционированием и каталогизацией ссылок, присылаемых и публикуемых на форуме нашими читателями. Если вы являетесь правообладателем какого-либо представленного материала и не желаете чтобы ссылка на него находилась в нашем каталоге, свяжитесь с нами и мы незамедлительно удалим её. Файлы для обмена на трекере предоставлены пользователями сайта, и администрация не несёт ответственности за их содержание. Просьба не заливать файлы, защищенные авторскими правами, а также файлы нелегального содержания!
cron