Тренер (Данила Козловский) [2018, драма, спорт, WEB-DLRip]

 
 Статистика раздачи 
Размер: 1.46 ГБ   |  Зарегистрирован: 14 июн 2018, 19:40   |   .torrent скачан: 0 раз
Сидеров: 1  [ 0 байт/сек ]     Личеров: 0  [ 0 байт/сек ]  
  

Тренер (Данила Козловский) [2018, драма, спорт, WEB-DLRip]

Сообщение Nakazhu » 14 июн 2018, 19:40

Тренер
Страна: Россия
Жанр: драма, спорт
Год выпуска: 2018
Продолжительность: 02:12:22
Субтитры: нет
Режиссер: Данила Козловский
В ролях: Данила Козловский, Владимир Ильин, Андрей Смоляков, Ольга Зуева, Ирина Горбачёва, Виктор Вержбицкий, Мария Лобанова, Павел Ворожцов, Игорь Гордин, Александр Ильин
Описание: Футболист национальной сборной Юрий Столешников в ответственный момент не забивает пенальти. После досадной ошибки Столешников покидает сборную, завершает карьеру и становится тренером маленькой провинциальной команды. Именно с этим клубом Столешникову предстоит совершить чудо и вновь поверить в себя

Качество видео: WEB-DLRip
Формат видео: AVI
Видео: 720x304 (2.37:1), 25 fps, XviD build 73 ~1380 kbps avg, 0.25 bit/pixel
Аудио: 48 kHz, AC3 Dolby Digital, 2/0 (L,R) ch, ~192 kbps
Сэмпл[/spoiler]
Код: Выделить всё
Код:
Код: Выделить всё
Format                      : AVI
Format/Info                 : Audio Video Interleave
File size                   : 1.46 GiB
Duration                    : 2 h 12 min
Overall bit rate            : 1 582 kb/s
Writing application         : VirtualDubMod 1.5.10.3 | www.virtualdub-fr.org || (build 2550/release)
Writing library             : VirtualDubMod build 2550/release
Video
ID                          : 0
Format                      : MPEG-4 Visual
Format profile              : Advanced Simple@L5
Format settings             : BVOP1
Format settings, BVOP       : 1
Format settings, QPel       : No
Format settings, GMC        : No warppoints
Format settings, Matrix     : Default (MPEG)
Codec ID                    : XVID
Codec ID/Hint               : XviD
Duration                    : 2 h 12 min
Bit rate                    : 1 381 kb/s
Width                       : 720 pixels
Height                      : 304 pixels
Display aspect ratio        : 2.35:1
Frame rate                  : 25.000 FPS
Color space                 : YUV
Chroma subsampling          : 4:2:0
Bit depth                   : 8 bits
Scan type                   : Progressive
Compression mode            : Lossy
Bits/(Pixel*Frame)          : 0.252
Stream size                 : 1.28 GiB (87%)
Writing library             : XviD 73
Audio
ID                          : 1
Format                      : AC-3
Format/Info                 : Audio Coding 3
Codec ID                    : 2000
Duration                    : 2 h 12 min
Bit rate mode               : Constant
Bit rate                    : 192 kb/s
Channel(s)                  : 2 channels
Channel positions           : Front: L R
Sampling rate               : 48.0 kHz
Frame rate                  : 31.250 FPS (1536 SPF)
Bit depth                   : 16 bits
Compression mode            : Lossy
Stream size                 : 182 MiB (12%)
Alignment                   : Split accross interleaves
Interleave, duration        : 40  ms (1.00 video frame)
Interleave, preload duratio : 500  ms
Service kind                : Complete Main


 
Не забывайте говорить Спасибо. Не уходите с раздачи!   
Торрент: Зарегистрирован [14 июн 2018, 19:40] Для скачивания .torrent
необходима регистрация
Или скачать с помощью
MediaGet
Статус:
Проверен
 
.torrent скачан: 0 раз
Хэш: 05e829b9561b092c55b9f2dbd02cf15777d14f3d
Размер: 1.46 ГБ (1 571 129 344 байт)
Стать Автором раздачи
 
 
Раздал: 0 байт
Скачал: 0 байт
Ратио: Inf.
Сообщения: 487468
Зарегистрирован: 17 апр 2014, 13:57


  • Похожие торренты
    Ответы
    Просмотры
    Последнее сообщение

Вернуться в Отечественное кино

Ресурс не предоставляет электронные версии произведений, а занимается лишь коллекционированием и каталогизацией ссылок, присылаемых и публикуемых на форуме нашими читателями. Если вы являетесь правообладателем какого-либо представленного материала и не желаете чтобы ссылка на него находилась в нашем каталоге, свяжитесь с нами и мы незамедлительно удалим её. Файлы для обмена на трекере предоставлены пользователями сайта, и администрация не несёт ответственности за их содержание. Просьба не заливать файлы, защищенные авторскими правами, а также файлы нелегального содержания!
cron