Демоны старшей школы: Герой / High School DxD Hero [TV] [1-10 из 13] [Без хардсаба] [RUS(int), JAP+SUB] [2018, Комедия, Романтика, Экшен, Этти, HDTVRip] [720p]

 
 Статистика раздачи 
Размер: 3.78 ГБ   |  Зарегистрирован: 14 июн 2018, 18:23   |   .torrent скачан: 0 раз
Сидеров: 1  [ 0 байт/сек ]     Личеров: 0  [ 0 байт/сек ]  
  

Демоны старшей школы: Герой / High School DxD Hero [TV] [1-10 из 13] [Без хардсаба] [RUS(int), JAP+SUB] [2018, Комедия, Романтика, Экшен, Этти, HDTVRip] [720p]

Сообщение Nakazhu » 14 июн 2018, 18:23


Страна: Япония
Год выпуска: 2018
Жанр: Комедия, Романтика, Экшен, Этти
Тип: TV
Продолжительность: 13 эп. ~24 мин
Режиссер: Ёсифуми Суэда
Студия:
Озвучка: Многоголосая / AniLibria
—Lupin(муж)
—Sharon(муж)
—Itashi(жен)
—Hekomi(жен)
Перевод: Sovet Romantica
Описание: Кто из нас не мечтал о собственном гареме? Только представьте, быть окружённым вниманием толпы красоток, которые сражаются за право стать твоей избранницей. Рай на земле, да и только! Вот и Иссей Хёдо, глуповатый и озабоченный старшеклассник, тоже так подумал, поэтому и решил поступить в Академию Кудо, где учится большинство девушек. Но его наивные мечты не сбылись, ученицы плевать на него хотели с высокой горки.
Однако, после продолжительных попыток, Иссею улыбнулась фортуна, и он пошёл на свидание с красоткой Юмой Амано, но вместо долгожданной романтики он стал жертвой кровавого убийства. Но внезапно его жизнь спасает первая красавица школы и, по совместительству, демоница Риас Гремори, правда взамен ему приходится стать демоном и её слугой, а также вступить в оккультный школьный клуб, где он познакомится с другими демонами. Но Иссей вовсе не против, ведь став крутым демоном, он сможет исполнить свою давнюю мечту и завести себе настоящий гарем! Правда до этого ему ещё очень далеко, но главное - не сдаваться на полпути!
Информационные ссылки:: AniDB | MyAnimeList | World Art
Качество: HDTVRip
Тип релиза: Без хардсаба
Формат видео: MKV
Автор рипа: Ohys-Raws
Видео: AVC, 8 bits, 1280x720, ~2100 kbps, 23,976 fps
Аудио: RUS, AAC, 48000 Hz, 192 kbps, 2 ch; Язык Русский (в составе контейнера) ;
Аудио 2: JAP, AAC, 48000 Hz, 202 kbps, 2 ch;
Субтитры: RUS, ASS (надписи + полные, в составе контейнера) Sovet Romantica (Ristretto, Alvakarp)[/spoiler]
Код: Выделить всё
Формат                                   : Matroska
Версия формата                           : Version 4 / Version 2
Размер файла                             : 430 Мбайт
Продолжительность                        : 24 м. 0 с.
Общий поток                              : 2506 Кбит/сек
Дата кодирования                         : UTC 2018-04-13 15:17:07
Программа кодирования                    : mkvmerge v22.0.0 ('At The End Of The World') 64-bit
Библиотека кодирования                   : libebml v1.3.5 + libmatroska v1.4.8
Attachments                              : d9464-arkhip_font.ttf / 2305.ttf / 10175.otf / comic.ttf
Видео
Идентификатор                            : 1
Формат                                   : AVC
Формат/Информация                        : Advanced Video Codec
Профиль формата                          : Main@L4.1
Настройки формата                        : CABAC / 4 Ref Frames
Параметр CABAC формата                   : Да
Параметр RefFrames формата               : 4 кадра
Идентификатор кодека                     : V_MPEG4/ISO/AVC
Продолжительность                        : 24 м. 0 с.
Битрейт                                  : 2106 Кбит/сек
Ширина                                   : 1280 пикселей
Высота                                   : 720 пикселей
Соотношение сторон                       : 16:9
Режим частоты кадров                     : Постоянный
Частота кадров                           : 23,976 (24000/1001) кадра/сек
Цветовое пространство                    : YUV
Субдискретизация насыщенности            : 4:2:0
Битовая глубина                          : 8 бит
Тип развёртки                            : Прогрессивная
Бит/(Пиксели*Кадры)                      : 0.095
Размер потока                            : 362 Мбайт (84%)
Заголовок                                : [Ohys-Raws]
Библиотека кодирования                   : x264 core 155 r2867+82 a249126 t_mod_Custom_2 [8-bit@all X86_64]
Настройки программы                      : cabac=1 / ref=3 / deblock=1:0:0 / analyse=0x1:0x111 / me=hex / subme=7 / psy=1 / fade_compensate=0.00 / psy_rd=1.00:0.00 / mixed_ref=1 / me_range=16 / chroma_me=1 / trellis=1 / 8x8dct=0 / cqm=0 / deadzone=21,11 / fast_pskip=1 / chroma_qp_offset=-2 / threads=18 / lookahead_threads=3 / sliced_threads=0 / nr=0 / decimate=1 / interlaced=0 / bluray_compat=0 / constrained_intra=0 / fgo=0 / bframes=3 / b_pyramid=2 / b_adapt=1 / b_bias=0 / direct=1 / weightb=1 / open_gop=0 / weightp=2 / keyint=240 / keyint_min=1 / scenecut=40 / intra_refresh=0 / rc_lookahead=40 / rc=crf / mbtree=1 / crf=20.0000 / qcomp=0.60 / qpmin=0:0:0 / qpmax=69:69:69 / qpstep=4 / ip_ratio=1.40 / aq=1:1.50 / aq-sensitivity=10.00 / aq-factor=1.00:1.00:1.00 / aq2=0 / aq3=0
Язык                                     : Japanese
Default                                  : Да
Forced                                   : Да
Цветовой диапазон                        : Limited
Основные цвета                           : BT.709
Характеристики трансфера                 : BT.709
Коэффициенты матрицы                     : BT.709
Аудио #1
Идентификатор                            : 2
Формат                                   : AAC
Формат/Информация                        : Advanced Audio Codec
Профиль формата                          : LC
Идентификатор кодека                     : A_AAC-2
Продолжительность                        : 24 м. 0 с.
Битрейт                                  : 192 Кбит/сек
Каналы                                   : 2 канала
Расположение каналов                     : Front: L R
Частота                                  : 48,0 КГц
Частота кадров                           : 46,875 кадров/сек (1024 SPF)
Метод сжатия                             : С потерями
Размер потока                            : 33,0 Мбайт (8%)
Заголовок                                : Lupin & Itashi & Sharon & Hekomi
Язык                                     : Russian
Default                                  : Да
Forced                                   : Да
Аудио #2
Идентификатор                            : 3
Формат                                   : AAC
Формат/Информация                        : Advanced Audio Codec
Профиль формата                          : LC
Идентификатор кодека                     : A_AAC-2
Продолжительность                        : 24 м. 0 с.
Битрейт                                  : 202 Кбит/сек
Каналы                                   : 2 канала
Расположение каналов                     : Front: L R
Частота                                  : 48,0 КГц
Частота кадров                           : 46,875 кадров/сек (1024 SPF)
Метод сжатия                             : С потерями
Размер потока                            : 34,7 Мбайт (8%)
Заголовок                                : Original
Язык                                     : Japanese
Default                                  : Нет
Forced                                   : Нет
Текст #1
Идентификатор                            : 4
Формат                                   : ASS
Идентификатор кодека                     : S_TEXT/ASS
Идентификатор кодека/Информация          : Advanced Sub Station Alpha
Продолжительность                        : 22 м. 0 с.
Битрейт                                  : 54 бит/сек
ElementCount                             : 53
Метод сжатия                             : Без потерь
Размер потока                            : 8,77 Кбайт (0%)
Заголовок                                : Надписи
Язык                                     : Russian
Default                                  : Да
Forced                                   : Да
Текст #2
Идентификатор                            : 5
Формат                                   : ASS
Идентификатор кодека                     : S_TEXT/ASS
Идентификатор кодека/Информация          : Advanced Sub Station Alpha
Продолжительность                        : 23 м. 49 с.
Битрейт                                  : 147 бит/сек
ElementCount                             : 367
Метод сжатия                             : Без потерь
Размер потока                            : 25,6 Кбайт (0%)
Заголовок                                : Sovet Romantica
Язык                                     : Russian
Default                                  : Нет
Forced                                   : Нет

01. Holiness Behind the Gym (Святость за тренажерным залом)
02. That`s Right, Let`s Go to Kyoto (Вперед, наша цель Киото!)

03. School Trip, an Abrupt Attack (Школьная поездка и внезапная атака)
04. The Party of Heroes (Группа героев)
05. Showdown! Gremory Family vs. Hero Faction in Kyoto (Разборка! Семья Гремори против Фракции Героев в Киото)
06. My Potential Released! (Реализация скрытых возможностей!)
07. The School Trip Is in Pandemonium (Разгар школьной поездки)
08. We Are Preparing for the School Festival! (Мы готовимся к школьному фестивалю!)
09. A Girl`s Heart Is Complicated (Проблема девичьих сердец)
10. The Deciding Battle of the Strongest Youth, Begins! (Решающее сражение сильнейшей молодежи началось!)
11.
12.


Добавлена 10 серия, перекачайте торрент-файл
 
Не забывайте говорить Спасибо. Не уходите с раздачи!   
Торрент: Зарегистрирован [14 июн 2018, 18:23] Скачать торрент
Скачать торрент
[ Размер 20.14 КБ / Просмотров 2 ]
Статус:
Проверен
 
.torrent скачан: 0 раз
Хэш: b3f8b93b5855b90d99593147b1054a875d5ac776
Размер: 3.78 ГБ (4 056 064 862 байт)
Стать Автором раздачи
 
 
Раздал: 0 байт
Скачал: 0 байт
Ратио: Inf.
Сообщения: 487468
Зарегистрирован: 17 апр 2014, 13:57


  • Похожие торренты
    Ответы
    Просмотры
    Последнее сообщение

Вернуться в Аниме (HD и Blu-ray)

Ресурс не предоставляет электронные версии произведений, а занимается лишь коллекционированием и каталогизацией ссылок, присылаемых и публикуемых на форуме нашими читателями. Если вы являетесь правообладателем какого-либо представленного материала и не желаете чтобы ссылка на него находилась в нашем каталоге, свяжитесь с нами и мы незамедлительно удалим её. Файлы для обмена на трекере предоставлены пользователями сайта, и администрация не несёт ответственности за их содержание. Просьба не заливать файлы, защищенные авторскими правами, а также файлы нелегального содержания!
cron