Доказательство смерти / Death Proof (Квентин Тарантино / Quentin Tarantino) [2007, США, боевик, триллер, криминал, HDTVRip 720p] [Open Matte] DVO + Dub

 
 Статистика раздачи 
Размер: 7.25 ГБ   |  Зарегистрирован: 14 июн 2018, 18:23   |   .torrent скачан: 0 раз
Сидеров: 1  [ 0 байт/сек ]     Личеров: 0  [ 0 байт/сек ]  
  

Доказательство смерти / Death Proof (Квентин Тарантино / Quentin Tarantino) [2007, США, боевик, триллер, криминал, HDTVRip 720p] [Open Matte] DVO + Dub

Сообщение Nakazhu » 14 июн 2018, 18:23

Доказательство Смерти / Death Proof
Год выпуска: 2007
Страна: США
Жанр: Боевик, Ужасы
Продолжительность: 01:53:34
Перевод: Профессиональный (двухголосый, закадровый) Гланц и Королёва
Перевод: Профессиональный (полное дублирование)
Русские субтитры: нет
Режиссер: Квентин Тарантино
В ролях: Курт Рассел /Kurt Russell/, Розарио Доусон /Rosario Dawson/, Ванесса Ферлито /Vanessa Ferlito/, Джордан Лэдд /Jordan Ladd/, Роуз МакГоун /Rose McGowan/, Сидни Тамиа Пуатье /Sydney Tamiia Poitier/
Описание: Три девицы отправляются отмечать день рождения одной из них, диск-жокея Джангл Джулии, в техасскую забегаловку. Там среди прочего обнаруживается вкрадчивый немолодой мужчина со шрамом, который представляется как Каскадер Майк. Он любит быструю езду, и не прочь подбросить до дома симпатичную девушку. А ещё он считает, что выйдет сухим из воды даже в случае самой ужасной аварии…
Доп. информация: Рип от ESiR
Качество: HDTVRip
Формат: MKV
Видео кодек: H.264
Аудио кодек: AC3
Видео: 1280x720, x264, 23.976 fps, ~ 7798 kbps
Аудио#1: Русский: DD 5.1 (AC3), 48 kHz, 448 kbps avg - Гланц
Аудио#2: Русский: DD 5.1 (AC3), 48 kHz, 448 kbps avg - Дубляж
Аудио#3: Английский: DD 5.1 (AC3), 48 kHz, 448 kbps avg
Общее
Уникальный идентификатор : 197428978462865364771204357237624327743 (0x9487702AAC577B09B093BC050A8CCE3F)
Полное имя : Z:\Dokazatelstvo_Smerti_720p_[torrents.ru]\Death.Proof.HDTVRip.720p.x264.MIF.mkv
Формат : Matroska
Версия формата : Version 1
Размер файла : 7,25 Гбайт
Продолжительность : 1 ч. 53 м.
Общий поток : 9144 Кбит/сек
Дата кодирования : UTC 2007-11-27 17:26:11
Программа кодирования : mkvmerge v1.8.1 ('Little By Little') built on Nov 25 2006 16:14:30
Библиотека кодирования : libebml v0.7.7 + libmatroska v0.8.0
Attachments : CronosPro-Bold.ttf / CronosPro-Semibold.ttf / CronosPro-SemiboldIt.ttf
Видео
Идентификатор : 1
Формат : AVC
Формат/Информация : Advanced Video Codec
Профиль формата : High@L5.1
Параметр CABAC формата : Да
Параметр ReFrames формата : 8 кадров
Идентификатор кодека : V_MPEG4/ISO/AVC
Продолжительность : 1 ч. 53 м.
Битрейт : 7795 Кбит/сек
Ширина : 1280 пикселей
Высота : 720 пикселей
Соотношение сторон : 16:9
Режим частоты кадров : Постоянный
Частота кадров : 23,976 (24000/1001) кадра/сек
Цветовое пространство : YUV
Субдискретизация насыщенности : 4:2:0
Битовая глубина : 8 бит
Тип развёртки : Прогрессивная
Бит/(Пиксели*Кадры) : 0.353
Размер потока : 6,04 Гбайт (83%)
Библиотека кодирования : x264 core 56 svn-680
Настройки программы : cabac=1 / ref=5 / deblock=1:-3:-3 / analyse=0x3:0x133 / me=umh / subme=7 / brdo=1 / mixed_ref=1 / me_range=16 / chroma_me=1 / trellis=0 / 8x8dct=1 / cqm=2 / deadzone=6,6 / chroma_qp_offset=0 / threads=6 / nr=0 / decimate=1 / mbaff=0 / bframes=3 / b_pyramid=1 / b_adapt=1 / b_bias=0 / direct=1 / wpredb=1 / bime=1 / keyint=250 / keyint_min=25 / scenecut=40(pre) / rc=2pass / bitrate=7795 / ratetol=1.0 / rceq='blurCplx^(1-qComp)' / qcomp=0.60 / qpmin=10 / qpmax=51 / qpstep=4 / cplxblur=20.0 / qblur=0.5 / ip_ratio=1.40 / pb_ratio=1.30 / aq=1:0.5:15.0
Язык : English
Default : Да
Forced : Нет
Аудио #1
Идентификатор : 2
Формат : AC-3
Формат/Информация : Audio Coding 3
Расширение режима : CM (complete main)
Параметр Endianness формата : Big
Идентификатор кодека : A_AC3
Продолжительность : 1 ч. 53 м.
Вид битрейта : Постоянный
Битрейт : 448 Кбит/сек
Каналы : 6 каналов
Расположение каналов : Front: L C R, Side: L R, LFE
Частота : 48,0 КГц
Частота кадров : 31,250 кадров/сек (1536 spf)
Метод сжатия : С потерями
Размер потока : 364 Мбайт (5%)
Заголовок : DD 5.1 English
Язык : English
Default : Нет
Forced : Нет
Аудио #2
Идентификатор : 7
Формат : AC-3
Формат/Информация : Audio Coding 3
Расширение режима : CM (complete main)
Параметр Endianness формата : Big
Идентификатор кодека : A_AC3
Продолжительность : 1 ч. 53 м.
Вид битрейта : Постоянный
Битрейт : 448 Кбит/сек
Каналы : 6 каналов
Расположение каналов : Front: L C R, Side: L R, LFE
Частота : 48,0 КГц
Частота кадров : 31,250 кадров/сек (1536 spf)
Метод сжатия : С потерями
Размер потока : 364 Мбайт (5%)
Заголовок : DD 5.1 - Mnogogolosiy by MIF
Язык : Russian
Default : Да
Forced : Нет
Аудио #3
Идентификатор : 8
Формат : AC-3
Формат/Информация : Audio Coding 3
Расширение режима : CM (complete main)
Параметр Endianness формата : Big
Идентификатор кодека : A_AC3
Продолжительность : 1 ч. 53 м.
Вид битрейта : Постоянный
Битрейт : 448 Кбит/сек
Каналы : 6 каналов
Расположение каналов : Front: L C R, Side: L R, LFE
Частота : 48,0 КГц
Частота кадров : 31,250 кадров/сек (1536 spf)
Метод сжатия : С потерями
Размер потока : 364 Мбайт (5%)
Заголовок : DD 5.1 - Dublyazh by MIF
Язык : Russian
Default : Нет
Forced : Нет
Текст #1
Идентификатор : 3
Формат : ASS
Идентификатор кодека : S_TEXT/ASS
Идентификатор кодека/Информация : Advanced Sub Station Alpha
Метод сжатия : Без потерь
Язык : English
Default : Да
Forced : Нет
Текст #2
Идентификатор : 4
Формат : ASS
Идентификатор кодека : S_TEXT/ASS
Идентификатор кодека/Информация : Advanced Sub Station Alpha
Метод сжатия : Без потерь
Язык : Romanian
Default : Нет
Forced : Нет
Текст #3
Идентификатор : 5
Формат : ASS
Идентификатор кодека : S_TEXT/ASS
Идентификатор кодека/Информация : Advanced Sub Station Alpha
Метод сжатия : Без потерь
Язык : Finnish
Default : Нет
Forced : Нет
Текст #4
Идентификатор : 6
Формат : ASS
Идентификатор кодека : S_TEXT/ASS
Идентификатор кодека/Информация : Advanced Sub Station Alpha
Метод сжатия : Без потерь
Язык : Spanish
Default : Нет
Forced : Нет
 
Не забывайте говорить Спасибо. Не уходите с раздачи!   
Торрент: Зарегистрирован [14 июн 2018, 18:23] Для скачивания .torrent
необходима регистрация
Или скачать с помощью
MediaGet
Статус:
Проверен
 
.torrent скачан: 0 раз
Хэш: 74ba2ddbd8d7b08474c406dee9ea707118e7e1d1
Размер: 7.25 ГБ (7 788 680 979 байт)
Стать Автором раздачи
 
 
Раздал: 0 байт
Скачал: 0 байт
Ратио: Inf.
Сообщения: 487468
Зарегистрирован: 17 апр 2014, 13:57


  • Похожие торренты
    Ответы
    Просмотры
    Последнее сообщение

Вернуться в Зарубежные фильмы (HD Video)

Ресурс не предоставляет электронные версии произведений, а занимается лишь коллекционированием и каталогизацией ссылок, присылаемых и публикуемых на форуме нашими читателями. Если вы являетесь правообладателем какого-либо представленного материала и не желаете чтобы ссылка на него находилась в нашем каталоге, свяжитесь с нами и мы незамедлительно удалим её. Файлы для обмена на трекере предоставлены пользователями сайта, и администрация не несёт ответственности за их содержание. Просьба не заливать файлы, защищенные авторскими правами, а также файлы нелегального содержания!
cron