Бабадук / The Babadook (Дженнифер Кент/ Jennifer Kent) [2014, Австралия, Канада, Ужасы, драма, DVD5] R5 Dub

 
 Статистика раздачи 
Размер: 4.15 ГБ   |  Зарегистрирован: 14 июн 2018, 18:23   |   .torrent скачан: 0 раз
Сидеров: 1  [ 0 байт/сек ]     Личеров: 0  [ 0 байт/сек ]  
  

Бабадук / The Babadook (Дженнифер Кент/ Jennifer Kent) [2014, Австралия, Канада, Ужасы, драма, DVD5] R5 Dub

Сообщение Nakazhu » 14 июн 2018, 18:23

Бабадук / The Babadook
«If it's in a word. Or it's in a look. You can't get rid of ... The Babadook»

Страна: Австралия, Канада
Студии: Entertainment One, Screen Australia, Causeway Films, Smoking Gun Productions
Жанр: Ужасы, драма
Год выпуска: 2014
Дата мировой премьеры: 17 января 2014
Дата российской премьеры: 29 января 2015, «Экспонента»
Дата выхода DVD релиза: 12 марта 2015, «CD Land»
Продолжительность: 01:29:59
Перевод: Профессиональный (дублированный) [Лицензия]
Субтитры: Нет
Оригинальная аудиодорожка: Нет
Режиссер: Дженнифер Кент/ Jennifer Kent
Продюсеры: Кристина Кейтон, Кристиан Мольере, Пит Бест
Актеры: Эсси Дэвис, Ной Уайзман, Хейли МакЭлхинни, Дэниэл Хеншэлл, Барбара Уэст, Бенжамин Винспер, Хлоя Херн, Жаки Филлипс, Бриджет Уолтерс, Энни Баттен
Описание:
Шесть лет назад Амелия в один день потеряла мужа и родила сына. Сэмуэлю идёт уже седьмой год, но ему везде мерещатся чудовища. Однажды перед сном мальчик просит маму почитать ему найденную книгу об ужасном монстре. С этого момента его страхи получают физическое воплощение в жутком Бабадуке — и он, и Амелия перестают отличать свои фантазии от реальности.
Доп. материалы: Отсутствуют

Качество: DVD5 R5
Формат: DVD-Video
Видео: MPEG-2, 720x576@1024x576 (PAL 16:9), ~6300 Кбит/сек
Аудио: AC3 5.1, 448 Кбит/сек [Русский - дублированный]
Title: The Babadook (2014) DVD5 R5
Size: 4.15 Gb ( 4 352 820,00 KBytes ) - DVD-5
Enabled regions: 1, 2, 3, 4, 5, 6, 7, 8
VTS_01 :
Play Length: 00:00:19
Video: PAL 16:9 (720x576) VBR, Auto Pan&Scan, Auto Letterboxed
Audio:
Not specified (Dolby AC3, 2 ch)
VTS_02 :
Play Length: 01:29:59
Video: PAL 16:9 (720x576) VBR, Auto Pan&Scan, Auto Letterboxed
Audio:
Not specified, AC3, 3/2 (L,C,R,SL,SR)+LFE ch, 448 kbps, Delay 0 mSec
Общее
Полное имя : G:\Torrents\The Babadook (2014) DVD5 R5\VIDEO_TS\VTS_02_2.VOB
Формат : MPEG-PS
Размер файла : 1024 Мбайт
Продолжительность : 20 м. 50 с.
Режим общего битрейта : Переменный
Общий поток : 6868 Кбит/сек
Видео
Идентификатор : 224 (0xE0)
Формат : MPEG Video
Версия формата : Version 2
Профиль формата : Main@Main
Настройки формата : CustomMatrix / BVOP
Параметр BVOP формата : Да
Параметр матрицы формата : Выборочная
Параметр GOP формата : M=3, N=15
Структура изображения : Frame
Продолжительность : 20 м. 50 с.
Вид битрейта : Переменный
Битрейт : 6283 Кбит/сек
Максимальный битрейт : 9000 Кбит/сек
Ширина : 720 пикселей
Высота : 576 пикселей
Соотношение сторон : 16:9
Частота кадров : 25,000 кадров/сек
Стандарт вещания : PAL
Цветовое пространство : YUV
Субдискретизация насыщенности : 4:2:0
Битовая глубина : 8 бит
Тип развёртки : Чересстрочная
Порядок развёртки : Верхнее поле первое
Метод сжатия : С потерями
Бит/(Пиксели*Кадры) : 0.606
Временной код первого кадра : 00:21:55:16
Оригинал временного кода : Group of pictures header
GOP, открыто/закрыто : Закрыто
Размер потока : 937 Мбайт (91%)
Аудио
Идентификатор : 189 (0xBD)-128 (0x80)
Формат : AC-3
Формат/Информация : Audio Coding 3
Параметр Endianness формата : Big
Режим смешивания : DVD-Video
Продолжительность : 20 м. 50 с.
Вид битрейта : Постоянный
Битрейт : 448 Кбит/сек
Каналы : 6 каналов
Расположение каналов : Front: L C R, Side: L R, LFE
Частота : 48,0 КГц
Частота кадров : 31,250 кадров/сек (1536 SPF)
Битовая глубина : 16 бит
Метод сжатия : С потерями
Задержка видео : -248 мс.
Размер потока : 66,8 Мбайт (7%)
ServiceKind/String : Complete Main
Меню


За предоставленный DVD спасибо большое AKIM2B
Раздаю с 10:00 до 23:00 до 10 скачавших.
 
Не забывайте говорить Спасибо. Не уходите с раздачи!   
Торрент: Зарегистрирован [14 июн 2018, 18:23] Скачать торрент
Скачать торрент
[ Размер 21.96 КБ / Просмотров 0 ]
Статус:
Проверен
 
.torrent скачан: 0 раз
Хэш: d717dd75d9490ae651816d4ac0da2fa75310a83a
Размер: 4.15 ГБ (4 457 287 680 байт)
Стать Автором раздачи
 
 
Раздал: 0 байт
Скачал: 0 байт
Ратио: Inf.
Сообщения: 487468
Зарегистрирован: 17 апр 2014, 13:57


  • Похожие торренты
    Ответы
    Просмотры
    Последнее сообщение

Вернуться в DVD Video на модерации

Ресурс не предоставляет электронные версии произведений, а занимается лишь коллекционированием и каталогизацией ссылок, присылаемых и публикуемых на форуме нашими читателями. Если вы являетесь правообладателем какого-либо представленного материала и не желаете чтобы ссылка на него находилась в нашем каталоге, свяжитесь с нами и мы незамедлительно удалим её. Файлы для обмена на трекере предоставлены пользователями сайта, и администрация не несёт ответственности за их содержание. Просьба не заливать файлы, защищенные авторскими правами, а также файлы нелегального содержания!
cron