Пиноккио / Pinocchio (Джанлуиджи Токкафондо / Gianluigi Toccafondo) [1999, Италия, авторская анимация, WEBRip]

 
 Статистика раздачи 
Размер: 54.57 МБ   |  Зарегистрирован: 14 июн 2018, 15:01   |   .torrent скачан: 0 раз
Сидеров: 1  [ 0 байт/сек ]     Личеров: 0  [ 0 байт/сек ]  
  

Пиноккио / Pinocchio (Джанлуиджи Токкафондо / Gianluigi Toccafondo) [1999, Италия, авторская анимация, WEBRip]

Сообщение Nakazhu » 14 июн 2018, 15:01

Пиноккио / Pinocchio
Страна: Италия
Жанр: авторская анимация
Год выпуска: 1999
Продолжительность: 00:05:56
Перевод: не требуется
Субтитры: нет
Режиссёр: Джанлуиджи Токкафондо / Gianluigi Toccafondo
Композитор: Марио Мариани / Mario Mariani
Описание: Абстрактно-импрессионистское изложение знаменитой сказки Карло Коллоди.
Доп. информация:
Silver Dove - Leipzig DOK Festival (1999)
Special Mention - Torino Film Festival (1999)
Качество видео: WEBRip
Формат видео: AVI
Видео: 1142 kbps, 656х464 (1.414), 25.000 fps, MPEG-4 Visual (XviD)
Аудио: 128 kbps, 44.1 kHz, 2 channels, MPEG Audio (MP3)
Код: Выделить всё
General
Complete name                            : Pinocchio (1999).avi
Format                                   : AVI
Format/Info                              : Audio Video Interleave
File size                                : 54.6 MiB
Duration                                 : 5mn 56s
Overall bit rate                         : 1 283 Kbps
Writing application                      : Lavf55.19.104
Writing library                          : VirtualDub build 35491/release
Video
ID                                       : 0
Format                                   : MPEG-4 Visual
Format profile                           : Advanced Simple@L5
Format settings, BVOP                    : 2
Format settings, QPel                    : No
Format settings, GMC                     : No warppoints
Format settings, Matrix                  : Default (H.263)
Codec ID                                 : XVID
Codec ID/Hint                            : XviD
Duration                                 : 5mn 56s
Bit rate                                 : 1 142 Kbps
Width                                    : 656 pixels
Height                                   : 464 pixels
Display aspect ratio                     : 1.414
Frame rate                               : 25.000 fps
Color space                              : YUV
Chroma subsampling                       : 4:2:0
Bit depth                                : 8 bits
Scan type                                : Progressive
Compression mode                         : Lossy
Bits/(Pixel*Frame)                       : 0.150
Stream size                              : 48.6 MiB (89%)
Writing library                          : XviD 73
Audio
ID                                       : 1
Format                                   : MPEG Audio
Format version                           : Version 1
Format profile                           : Layer 3
Mode                                     : Joint stereo
Mode extension                           : MS Stereo
Codec ID                                 : 55
Codec ID/Hint                            : MP3
Duration                                 : 5mn 56s
Bit rate mode                            : Constant
Bit rate                                 : 128 Kbps
Channel(s)                               : 2 channels
Sampling rate                            : 44.1 KHz
Compression mode                         : Lossy
Stream size                              : 5.45 MiB (10%)
Alignment                                : Aligned on interleaves
Interleave, duration                     : 26 ms (0.65 video frame)
Interleave, preload duration             : 522 ms
Writing library                          : LAME3.99.5
 
Не забывайте говорить Спасибо. Не уходите с раздачи!   
Торрент: Зарегистрирован [14 июн 2018, 15:01] Для скачивания .torrent
необходима регистрация
Или скачать с помощью
MediaGet
Статус:
Проверен
 
.torrent скачан: 0 раз
Хэш: 1bd4a76a6d1a308639ad40d0e52c2d0e9c42e1e5
Размер: 54.57 МБ (57 224 712 байт)
Стать Автором раздачи
 
 
Раздал: 0 байт
Скачал: 0 байт
Ратио: Inf.
Сообщения: 471951
Зарегистрирован: 17 апр 2014, 13:57


  • Похожие торренты
    Ответы
    Просмотры
    Последнее сообщение

Вернуться в Арт-хаус и авторское кино

Ресурс не предоставляет электронные версии произведений, а занимается лишь коллекционированием и каталогизацией ссылок, присылаемых и публикуемых на форуме нашими читателями. Если вы являетесь правообладателем какого-либо представленного материала и не желаете чтобы ссылка на него находилась в нашем каталоге, свяжитесь с нами и мы незамедлительно удалим её. Файлы для обмена на трекере предоставлены пользователями сайта, и администрация не несёт ответственности за их содержание. Просьба не заливать файлы, защищенные авторскими правами, а также файлы нелегального содержания!
cron