Забавные Мелодии: Кузнечик и Муравьи / Silly Symphony: The Grasshopper And The Ants (Уилфред Джексон / Wilfred Jackson) [1934, США, Мультфильм, короткометражный, BDRemux 1080p] Dub + 2xMVO + AVO (Кашкин) + Sub (Rus, Eng)

 
 Статистика раздачи 
Размер: 1.12 ГБ   |  Зарегистрирован: 14 июн 2018, 13:28   |   .torrent скачан: 0 раз
Сидеров: 1  [ 0 байт/сек ]     Личеров: 0  [ 0 байт/сек ]  
  

Забавные Мелодии: Кузнечик и Муравьи / Silly Symphony: The Grasshopper And The Ants (Уилфред Джексон / Wilfred Jackson) [1934, США, Мультфильм, короткометражный, BDRemux 1080p] Dub + 2xMVO + AVO (Кашкин) + Sub (Rus, Eng)

Сообщение Nakazhu » 14 июн 2018, 13:28

Забавные Мелодии: Кузнечик и Муравьи / Silly Symphony: The Grasshopper And The Ants
Страна: США
Жанр: Мультфильм, короткометражный, семейный, комедия
Продолжительность: 00:08:28
Год выпуска: 1934
Перевод 1: Профессиональный (дублированный) - Студия "Невафильм"
Перевод 2
: Профессиональный (многоголосый закадровый)
Перевод 3: Профессиональный (многоголосый закадровый)
Перевод 4: Авторский (одноголосый закадровый) - Александр Кашкин
Русские субтитры: есть
Режиссёр: Уилфред Джексон / Wilfred Jackson
Роли озвучивали: Пинто Колвиг
Описание: Кузнечик все лето веселится и играет на скрипке, а трудолюбивые муравьи делают запасы на зиму. Но что же случится, когда наступит зима…
Качество: BDRemux 1080p | Blu-Ray
Формат: MKV
Видео: MPEG-4 AVC, 1920x1080, 23.976 fps, 18022 kbps
Аудио 1: AC3, 48 kHz, 2 ch, 192 kbps [Русский, Профессиональный (дублированный) | "Невафильм"]
Аудио 2
: AC3, 48 kHz, 2 ch, 192 kbps [Русский, Профессиональный (многоголосый закадровый) | неизвестный | v. 1]
Аудио 3: AC3, 48 kHz, 2 ch, 192 kbps [Русский, Профессиональный (многоголосый закадровый) | неизвестный | v. 2]
Аудио 4: AC3, 48 kHz, 2 ch, 192 kbps [Русский, Авторский (одноголосый закадровый) | Александр Кашкин]
Аудио 5: AC3, 48 kHz, 2 ch, 192 kbps [English, Original]
Субтитры: Русские, English (for the hearing impaired)
Код: Выделить всё
Общее
Уникальный идентификатор                 : 247024596100238573877961581470928114399 (0xB9D734E7DD23984B9C99960BD8F892DF)
Полное имя                               : D:\Фильмы\Забавные Мелодии - Кузнечик и Муравьи (1934) BDRemux (1080p).mkv
Формат                                   : Matroska
Версия формата                           : Version 4 / Version 2
Размер файла                             : 1,12 Гбайт
Продолжительность                        : 8 м. 28 с.
Режим общего битрейта                    : Переменный
Общий поток                              : 18,9 Мбит/сек
Название фильма                          : Забавные Мелодии: Кузнечик и Муравьи / Silly Symphony: The Grasshopper And The Ants / 1934 / ДБ, 2 x ПМ, АП (Кашкин) / Blu-Ray Remux (1080p)
Дата кодирования                         : UTC 2016-09-25 15:49:51
Программа кодирования                    : mkvmerge v9.4.2 ('So High') 32bit
Библиотека кодирования                   : libebml v1.3.4 + libmatroska v1.4.5
Видео
Идентификатор                            : 1
Формат                                   : AVC
Формат/Информация                        : Advanced Video Codec
Профиль формата                          : High@L4.1
Параметр CABAC формата                   : Да
Параметр ReFrames формата                : 4 кадра
Идентификатор кодека                     : V_MPEG4/ISO/AVC
Продолжительность                        : 8 м. 28 с.
Вид битрейта                             : Переменный
Битрейт                                  : 18,0 Мбит/сек
Максимальный битрейт                     : 40,0 Мбит/сек
Ширина                                   : 1920 пикселей
Высота                                   : 1080 пикселей
Соотношение сторон                       : 16:9
Режим частоты кадров                     : Постоянный
Частота кадров                           : 29,970 (30000/1001) кадров/сек
Цветовое пространство                    : YUV
Субдискретизация насыщенности            : 4:2:0
Битовая глубина                          : 8 бит
Тип развёртки                            : MBAFF
Метод сохранения типа развёртки          : Чередующиеся поля
Порядок развёртки                        : Верхнее поле первое
Бит/(Пиксели*Кадры)                      : 0.289
Размер потока                            : 1,06 Гбайт (95%)
Заголовок                                : MPEG-4 AVC
Язык                                     : English
Default                                  : Да
Forced                                   : Нет
Цветовой диапазон                        : Limited
Основные цвета                           : BT.709
Характеристики трансфера                 : BT.709
Коэффициенты матрицы                     : BT.709
Аудио #1
Идентификатор                            : 2
Формат                                   : AC-3
Формат/Информация                        : Audio Coding 3
Расширение режима                        : CM (complete main)
Параметр Endianness формата              : Big
Идентификатор кодека                     : A_AC3
Продолжительность                        : 8 м. 28 с.
Вид битрейта                             : Постоянный
Битрейт                                  : 192 Кбит/сек
Каналы                                   : 2 канала
Расположение каналов                     : Front: L R
Частота                                  : 48,0 КГц
Частота кадров                           : 31,250 кадров/сек (1536 spf)
Метод сжатия                             : С потерями
Размер потока                            : 11,6 Мбайт (1%)
Заголовок                                : Профессиональный (дублированный) | "Невафильм"
Язык                                     : Russian
Default                                  : Да
Forced                                   : Нет
Аудио #2
Идентификатор                            : 3
Формат                                   : AC-3
Формат/Информация                        : Audio Coding 3
Расширение режима                        : CM (complete main)
Параметр Endianness формата              : Big
Идентификатор кодека                     : A_AC3
Продолжительность                        : 8 м. 28 с.
Вид битрейта                             : Постоянный
Битрейт                                  : 192 Кбит/сек
Каналы                                   : 2 канала
Расположение каналов                     : Front: L R
Частота                                  : 48,0 КГц
Частота кадров                           : 31,250 кадров/сек (1536 spf)
Метод сжатия                             : С потерями
Размер потока                            : 11,6 Мбайт (1%)
Заголовок                                : Профессиональный (многоголосый закадровый) | неизвестный | v. 1
Язык                                     : Russian
Default                                  : Нет
Forced                                   : Нет
Аудио #3
Идентификатор                            : 4
Формат                                   : AC-3
Формат/Информация                        : Audio Coding 3
Расширение режима                        : CM (complete main)
Параметр Endianness формата              : Big
Идентификатор кодека                     : A_AC3
Продолжительность                        : 8 м. 28 с.
Вид битрейта                             : Постоянный
Битрейт                                  : 192 Кбит/сек
Каналы                                   : 2 канала
Расположение каналов                     : Front: L R
Частота                                  : 48,0 КГц
Частота кадров                           : 31,250 кадров/сек (1536 spf)
Метод сжатия                             : С потерями
Размер потока                            : 11,6 Мбайт (1%)
Заголовок                                : Профессиональный (многоголосый закадровый) | неизвестный | v. 2
Язык                                     : Russian
Default                                  : Нет
Forced                                   : Нет
Аудио #4
Идентификатор                            : 5
Формат                                   : AC-3
Формат/Информация                        : Audio Coding 3
Расширение режима                        : CM (complete main)
Параметр Endianness формата              : Big
Идентификатор кодека                     : A_AC3
Продолжительность                        : 8 м. 28 с.
Вид битрейта                             : Постоянный
Битрейт                                  : 192 Кбит/сек
Каналы                                   : 2 канала
Расположение каналов                     : Front: L R
Частота                                  : 48,0 КГц
Частота кадров                           : 31,250 кадров/сек (1536 spf)
Метод сжатия                             : С потерями
Размер потока                            : 11,6 Мбайт (1%)
Заголовок                                : Авторский (одноголосый закадровый) | Александр Кашкин
Язык                                     : Russian
Default                                  : Нет
Forced                                   : Нет
Аудио #5
Идентификатор                            : 6
Формат                                   : AC-3
Формат/Информация                        : Audio Coding 3
Расширение режима                        : CM (complete main)
Параметр Endianness формата              : Big
Идентификатор кодека                     : A_AC3
Продолжительность                        : 8 м. 28 с.
Вид битрейта                             : Постоянный
Битрейт                                  : 192 Кбит/сек
Каналы                                   : 2 канала
Расположение каналов                     : Front: L R
Частота                                  : 48,0 КГц
Частота кадров                           : 31,250 кадров/сек (1536 spf)
Метод сжатия                             : С потерями
Размер потока                            : 11,6 Мбайт (1%)
Заголовок                                : Original
Язык                                     : English
Default                                  : Нет
Forced                                   : Нет
Текст #1
Идентификатор                            : 7
Формат                                   : UTF-8
Идентификатор кодека                     : S_TEXT/UTF8
Идентификатор кодека/Информация          : UTF-8 Plain Text
Продолжительность                        : 7 м. 50 с.
Битрейт                                  : 23 бит/сек
Count of elements                        : 25
Размер потока                            : 1,34 Кбайт (0%)
Заголовок                                : Русские | SRT
Язык                                     : Russian
Default                                  : Нет
Forced                                   : Нет
Текст #2
Идентификатор                            : 8
Формат                                   : UTF-8
Идентификатор кодека                     : S_TEXT/UTF8
Идентификатор кодека/Информация          : UTF-8 Plain Text
Продолжительность                        : 7 м. 46 с.
Битрейт                                  : 21 бит/сек
Count of elements                        : 40
Размер потока                            : 1,23 Кбайт (0%)
Заголовок                                : English | SRT (for the hearing impaired)
Язык                                     : English
Default                                  : Нет
Forced                                   : Нет
Меню
00:00:00.000                             : :Chapter 01
00:08:27.807                             : :Chapter 02
 
Не забывайте говорить Спасибо. Не уходите с раздачи!   
Торрент: Зарегистрирован [14 июн 2018, 13:28] Скачать торрент
Скачать торрент
[ Размер 11.74 КБ / Просмотров 4 ]
Статус:
Проверен
 
.torrent скачан: 0 раз
Хэш: 9ef491b85351127f5d9ca9a3173474a19ee9487e
Размер: 1.12 ГБ (1 203 273 310 байт)
Стать Автором раздачи
 
 
Раздал: 0 байт
Скачал: 0 байт
Ратио: Inf.
Сообщения: 487468
Зарегистрирован: 17 апр 2014, 13:57


  • Похожие торренты
    Ответы
    Просмотры
    Последнее сообщение

Вернуться в Короткометражные мультфильмы (HD Video)

Ресурс не предоставляет электронные версии произведений, а занимается лишь коллекционированием и каталогизацией ссылок, присылаемых и публикуемых на форуме нашими читателями. Если вы являетесь правообладателем какого-либо представленного материала и не желаете чтобы ссылка на него находилась в нашем каталоге, свяжитесь с нами и мы незамедлительно удалим её. Файлы для обмена на трекере предоставлены пользователями сайта, и администрация не несёт ответственности за их содержание. Просьба не заливать файлы, защищенные авторскими правами, а также файлы нелегального содержания!
cron