Могилы / The Graves (Брайан Пулидо / Brayan Pulido) [2009, Ужасы, триллер, HDRip] DVO + Eng

 
 Статистика раздачи 
Размер: 1.44 ГБ   |  Зарегистрирован: 13 июн 2018, 21:09   |   .torrent скачан: 0 раз
Сидеров: 1  [ 0 байт/сек ]     Личеров: 0  [ 0 байт/сек ]  
  

Могилы / The Graves (Брайан Пулидо / Brayan Pulido) [2009, Ужасы, триллер, HDRip] DVO + Eng

Сообщение Nakazhu » 13 июн 2018, 21:09

Могилы / The Graves
Страна: США, Mischief Maker Studios
Жанр: Ужасы, триллер
Год выпуска: 2009
Продолжительность: 01:24:38
Перевод: Любительский (двухголосый закадровый)
Оригинальная аудиодорожка: Английский
Субтитры: нет
Режиссер: Брайан Пулидо / Brian Pulido
В ролях: Клер С. Джонсон, Джиллиан Мюррэй, Тони Тодд, Билл Моусли, Аманда Уайсс, Пэтти Тиндел, Кэти Ранкин, Брайан Пулидо, Билл Липпинкотт, Рэнди Блайт
Описание:
Две сестры, посетив отдаленный шахтерский городок, оказываются в ловушке и, чтобы выбраться, им придется приложить немало сил в противостоянии как человеческому, так и сверхъестественному злу.
Семпл / Все раздачи фильма
Исходник - BDRip 1080p http://rutracker.org/forum/viewtopic.php?t=2863715
Качество видео: HDRip
Формат видео: AVI
Видео: 720x416, 25.000 fps, XviD, 2049 kbps, 0.274 bit/pixel
Аудио:
№1 192 Kbps, 48 KHz, 2 ch, MP3 Любительский (двухголосый закадровый)
№2 192 Kbps, 48 KHz, 2 ch, MP3 Английский
General
Complete name : E:\Graves.2009.avi
Format : AVI
Format/Info : Audio Video Interleave
File size : 1.44 GiB
Duration : 1h 24mn
Overall bit rate : 2 444 Kbps
Writing application : VirtualDubMod 1.5.10.3 | www.virtualdub-fr.org || (build 2550/release)
Writing library : VirtualDubMod build 2550/release
Video
ID : 0
Format : MPEG-4 Visual
Format profile : Advanced Simple@L5
Format settings, BVOP : Yes
Format settings, QPel : No
Format settings, GMC : No warppoints
Format settings, Matrix : Default (MPEG)
Codec ID : XVID
Codec ID/Hint : XviD
Duration : 1h 24mn
Bit rate : 2 049 Kbps
Width : 720 pixels
Height : 416 pixels
Display aspect ratio : 16:9
Frame rate : 25.000 fps
Resolution : 8 bits
Colorimetry : 4:2:0
Scan type : Progressive
Bits/(Pixel*Frame) : 0.274
Stream size : 1.21 GiB (84%)
Writing library : XviD 73
Audio #1
ID : 1
Format : MPEG Audio
Format version : Version 1
Format profile : Layer 3
Mode : Joint stereo
Codec ID : 55
Codec ID/Hint : MP3
Duration : 1h 23mn
Bit rate mode : Constant
Bit rate : 192 Kbps
Channel(s) : 2 channels
Sampling rate : 48.0 KHz
Stream size : 115 MiB (8%)
Alignment : Aligned on interleaves
Interleave, duration : 40 ms (1.01 video frame)
Interleave, preload duration : 504 ms
Audio #2
ID : 2
Format : MPEG Audio
Format version : Version 1
Format profile : Layer 3
Mode : Joint stereo
Codec ID : 55
Codec ID/Hint : MP3
Duration : 1h 23mn
Bit rate mode : Constant
Bit rate : 192 Kbps
Channel(s) : 2 channels
Sampling rate : 48.0 KHz
Stream size : 115 MiB (8%)
Alignment : Aligned on interleaves
Interleave, duration : 40 ms (1.01 video frame)
Interleave, preload duration : 504 ms
 
Не забывайте говорить Спасибо. Не уходите с раздачи!   
Торрент: Зарегистрирован [13 июн 2018, 21:09] Для скачивания .torrent
необходима регистрация
Или скачать с помощью
MediaGet
Статус:
Проверен
 
.torrent скачан: 0 раз
Хэш: f089a965413280e2eab0296143d8fca9b8499fa2
Размер: 1.44 ГБ (1 551 372 288 байт)
Стать Автором раздачи
 
 
Раздал: 0 байт
Скачал: 0 байт
Ратио: Inf.
Сообщения: 474226
Зарегистрирован: 17 апр 2014, 13:57


  • Похожие торренты
    Ответы
    Просмотры
    Последнее сообщение

Вернуться в Зарубежные фильмы 2006-2010 года

Ресурс не предоставляет электронные версии произведений, а занимается лишь коллекционированием и каталогизацией ссылок, присылаемых и публикуемых на форуме нашими читателями. Если вы являетесь правообладателем какого-либо представленного материала и не желаете чтобы ссылка на него находилась в нашем каталоге, свяжитесь с нами и мы незамедлительно удалим её. Файлы для обмена на трекере предоставлены пользователями сайта, и администрация не несёт ответственности за их содержание. Просьба не заливать файлы, защищенные авторскими правами, а также файлы нелегального содержания!
cron