Переправа / The Crossing / Сезон: 1 / Серии: 1-11 (11) (Роб Боумен, Кен Джиротти, Джеффри Дж. Хант) [2018, США, фантастика, драма, приключения, WEB-DL 1080p] MVO (Lostfilm) + Original + Sub (eng)

 
 Статистика раздачи 
Размер: 39.97 ГБ   |  Зарегистрирован: 13 июн 2018, 18:49   |   .torrent скачан: 0 раз
Сидеров: 1  [ 0 байт/сек ]     Личеров: 0  [ 0 байт/сек ]  
  

Переправа / The Crossing / Сезон: 1 / Серии: 1-11 (11) (Роб Боумен, Кен Джиротти, Джеффри Дж. Хант) [2018, США, фантастика, драма, приключения, WEB-DL 1080p] MVO (Lostfilm) + Original + Sub (eng)

Сообщение Nakazhu » 13 июн 2018, 18:49

Переправа / The Crossing / Сезон 1


Год выпуска: 2018
Страна: США
Жанр: фантастика, драма, приключения
Продолжительность: 01:00:00
Перевод: Профессиональный (многоголосый закадровый) Lostfilm
Режиссёр: Роб Боумен, Кен Джиротти, Джеффри Дж. Хант
В ролях: Рик Гомес, Грант Уитни Харви, Келли Миссал, Симона Кэссел, Люк Камиллери, Стив Зан, Кристиан Майкл Купер, Райан МакДонелл, Сандрин Холт, Барбара Ив Харрис
Описание: Волны выбрасывают на промозглый орегонский пляж тела непонятно откуда взявшихся беженцев. Все они прибыли из будущего, в котором сейчас вовсю разворачивается очередная мировая война. В том, чем грозит нашествие, пытается разобраться местный шериф.

Сэмпл[/spoiler]Ссылка на предыдущие и альтернативные раздачи[/spoiler]
Качество: WEB-DL 1080p (AMAZON)
Контейнер: MKV
Видео: H.264/AVC, 1920x1080p (1.78:1), 23.976 fps, ~10507 kbps, ~0.211 bit/pixel
Аудио №1: Русский E-AC3/DD+ 5.1, 48 kHz, 640 kbps
Аудио №2: Английский E-AC3/DD+ 5.1, 48 kHz, 640 kbps
Субтитры: Английские, Английские (SDH)
Реклама: отсутствует
Код:
Код: Выделить всё
01. Pilot / Пилот (2018-04-02)
02. A Shadow Out of Time / Тень вне времени (2018-04-09)
03. Pax Americana / Американский мир (2018-04-16)
04. The Face of Oblivion / Лик забвения (2018-04-23)
05. Ten Years Gone / Десять лет спустя (2018-04-30)
06. LKA / Последнее известное местонахождение (2018-05-07)
07. Some Dreamers of the Golden Dream / Золотая мечта (2018-05-14)
08. The Long Morrow / Долгое завтра (2018-05-28)
09. Hope Smiles from the Threshold / Надежда улыбается с порога (2018-06-04)
10. The Androcles Option / Выбор Андрокла (2018-06-09)
11. These are the Names / Вот имена (2018-06-09)

Код:
Код: Выделить всё
General
Unique ID                                : 135566794888938773401591585075315536579 (0x65FD37088B430935FD2F656B735EF2C3)
Complete name                            : The.Crossing.2018.S01.1080p.AMZN.WEB-DL.H264.RUS\The.Crossing.S01E01.1080p.AMZN.WEB-DL.H264.RUS.mkv
Format                                   : Matroska
Format version                           : Version 4 / Version 2
File size                                : 3.52 GiB
Duration                                 : 42 min 44 s
Overall bit rate mode                    : Variable
Overall bit rate                         : 11.8 Mb/s
Movie name                               : The Crossing Season 1 / Pilot
Track name/Position                      : 1
Description                              : After 47 refugees mysteriously wash up in a small fishing town, local sheriff Jude Ellis teams with DHS agent Emma Ren to assess their unusual claim ... that they're fleeing a war 180 years in the future. The mystery deepens when Jude realizes that one of the new arrivals possesses heightened abilities and is a threat to his town, setting the two of them on a collision course. As the rest of the refugees acclimate to their unfamiliar surroundings, Emma learns that one has information that calls into question everything she thought she knew about our present time.
Released date                            : 2018-04-03
Encoded date                             : UTC 2018-04-12 11:47:27
Writing application                      : mkvmerge v22.0.0 ('At The End Of The World') 64-bit
Writing library                          : libebml v1.3.5 + libmatroska v1.4.8
Video
ID                                       : 1
Format                                   : AVC
Format/Info                              : Advanced Video Codec
Format profile                           : High@L4
Format settings                          : CABAC / 4 Ref Frames
Format settings, CABAC                   : Yes
Format settings, RefFrames               : 4 frames
Codec ID                                 : V_MPEG4/ISO/AVC
Duration                                 : 42 min 44 s
Bit rate mode                            : Variable
Bit rate                                 : 10.5 Mb/s
Maximum bit rate                         : 15.0 Mb/s
Width                                    : 1 920 pixels
Height                                   : 1 080 pixels
Display aspect ratio                     : 16:9
Frame rate mode                          : Constant
Frame rate                               : 23.976 (24000/1001) FPS
Color space                              : YUV
Chroma subsampling                       : 4:2:0
Bit depth                                : 8 bits
Scan type                                : Progressive
Bits/(Pixel*Frame)                       : 0.211
Stream size                              : 3.14 GiB (89%)
Language                                 : English
Default                                  : Yes
Forced                                   : No
Color range                              : Limited
Color primaries                          : BT.709
Transfer characteristics                 : BT.709
Matrix coefficients                      : BT.709
Audio #1
ID                                       : 2
Format                                   : E-AC-3
Format/Info                              : Enhanced Audio Coding 3
Format settings, Endianness              : Big
Codec ID                                 : A_EAC3
Duration                                 : 42 min 44 s
Bit rate mode                            : Constant
Bit rate                                 : 640 kb/s
Channel(s)                               : 6 channels
Channel positions                        : Front: L C R, Side: L R, LFE
Sampling rate                            : 48.0 kHz
Frame rate                               : 187.500 FPS (256 SPF)
Compression mode                         : Lossy
Stream size                              : 196 MiB (5%)
Title                                    : Lostfilm
Language                                 : Russian
Service kind                             : Complete Main
Default                                  : Yes
Forced                                   : No
Audio #2
ID                                       : 3
Format                                   : E-AC-3
Format/Info                              : Enhanced Audio Coding 3
Format settings, Endianness              : Big
Codec ID                                 : A_EAC3
Duration                                 : 42 min 44 s
Bit rate mode                            : Constant
Bit rate                                 : 640 kb/s
Channel(s)                               : 6 channels
Channel positions                        : Front: L C R, Side: L R, LFE
Sampling rate                            : 48.0 kHz
Frame rate                               : 187.500 FPS (256 SPF)
Compression mode                         : Lossy
Stream size                              : 196 MiB (5%)
Language                                 : English
Service kind                             : Complete Main
Default                                  : No
Forced                                   : No
Text #1
ID                                       : 4
Format                                   : UTF-8
Codec ID                                 : S_TEXT/UTF8
Codec ID/Info                            : UTF-8 Plain Text
Duration                                 : 40 min 50 s
Bit rate                                 : 67 b/s
Count of elements                        : 675
Stream size                              : 20.1 KiB (0%)
Language                                 : English
Default                                  : No
Forced                                   : No
Text #2
ID                                       : 5
Format                                   : UTF-8
Codec ID                                 : S_TEXT/UTF8
Codec ID/Info                            : UTF-8 Plain Text
Duration                                 : 42 min 30 s
Bit rate                                 : 69 b/s
Count of elements                        : 826
Stream size                              : 21.7 KiB (0%)
Title                                    : SDH
Language                                 : English
Default                                  : No
Forced                                   : No

Когда раздача ведётся путём добавления новых серий, при каждом добавлении создётся новый торрент. Чтобы начать докачку новой серии, пользователям необходимо сделать следующее:
(1) остановить скачивание,
(2) удалить старый торрент у себя из клиента (старые серии удалять не надо),
(3) скачать новый торрент и запустить его у себя в клиенте вместо старого, при этом указать клиенту путь в старую папку, куда и должно происходить скачивание новых серий.
Ваш клиент при этом должен произвести хеширование (проверку) старой папки (если не производит сам - помогите ему сделать это), и будет докачивать только те серии, которых у вас ещё нет. Старые серии при этом не удаляются, а продолжают раздаваться!
Eсли вы уже удалили старые серии, то предотвратить повторную закачку старых серий можно, отжав галочку в соответсвующих местах при запуске нового торрента. По возможности, желательно не удалять старые серии как можно дольше, чтобы релизёр не столько продолжал раздавать старые серии, а смог сконцентрироваться на новых.
 
Не забывайте говорить Спасибо. Не уходите с раздачи!   
Торрент: Зарегистрирован [13 июн 2018, 18:49] Скачать торрент
Скачать торрент
[ Размер 401.1 КБ / Просмотров 0 ]
Статус:
Проверен
 
.torrent скачан: 0 раз
Хэш: 6fff26b36059fb514e47db3993c4c421e888d3e8
Размер: 39.97 ГБ (42 920 495 646 байт)
Стать Автором раздачи
 
 
Раздал: 0 байт
Скачал: 0 байт
Ратио: Inf.
Сообщения: 487468
Зарегистрирован: 17 апр 2014, 13:57


  • Похожие торренты
    Ответы
    Просмотры
    Последнее сообщение

Вернуться в Зарубежные сериалы (HD Video)

Ресурс не предоставляет электронные версии произведений, а занимается лишь коллекционированием и каталогизацией ссылок, присылаемых и публикуемых на форуме нашими читателями. Если вы являетесь правообладателем какого-либо представленного материала и не желаете чтобы ссылка на него находилась в нашем каталоге, свяжитесь с нами и мы незамедлительно удалим её. Файлы для обмена на трекере предоставлены пользователями сайта, и администрация не несёт ответственности за их содержание. Просьба не заливать файлы, защищенные авторскими правами, а также файлы нелегального содержания!
cron