Акулы - реальная угроза / Shark - The Real Threat (Жан-Мануэль Предом / Jean-Manuel Prudhomme) [2015, Документальный, HDTVRip 1080i, RUS/ENG]

 
 Статистика раздачи 
Размер: 1.11 ГБ   |  Зарегистрирован: 13 июн 2018, 17:00   |   .torrent скачан: 0 раз
Сидеров: 1  [ 0 байт/сек ]     Личеров: 0  [ 0 байт/сек ]  
  

Акулы - реальная угроза / Shark - The Real Threat (Жан-Мануэль Предом / Jean-Manuel Prudhomme) [2015, Документальный, HDTVRip 1080i, RUS/ENG]

Сообщение Nakazhu » 13 июн 2018, 17:00

Акулы - реальная угроза / Shark - The Real Threat
Год выпуска: 2015
Страна: Франция
Студия: Coproduit par FMC
Жанр: Документальный
Продолжительность: 00:53:05
Перевод: Профессиональный (двухголосый закадровый)
Русские субтитры: нет
Режиссер: Жан-Мануэль Предом / Jean-Manuel Prudhomme
Описание:
В течение почти 40 лет Жан-Бернард Гальвес совершает погружения с акулами на островах юго-западной части Индийского океана. Долгое время он был рыболовом, но потом он стал беспокоится о будущем акул.
За эти годы, находясь на борту своей лодки, он был свидетелем массового убийства акул ради торговли их плавниками. Фильм рассказывает о местах, где популяции акул уничтожаются интенсивной местной охотой.

Доп. информация: субтитры:
Croatian
Macedonian
Bulgarian
Сэмпл: http://multi-up.com/1201430
Тип релиза: HDTVRip 1080i
Контейнер: TS
Видео: AVC, 1920x1080, (16:9), 25 fps, 2 523 kb/s
Аудио: Russian, MP2, 48 kHz, 2 ch; 160 kbps
Аудио 2: English, MP2, 48 kHz, 2 ch; 160 kbps
Формат субтитров: DVB Subtitle
Код: Выделить всё
General
ID                                       : 1 (0x1)
Complete name                            : C:\Акулы - реальная угроза.ts
Format                                   : MPEG-TS
File size                                : 1.11 GiB
Duration                                 : 53 min 5 s
Overall bit rate mode                    : Variable
Overall bit rate                         : 2 994 kb/s
Video
ID                                       : 1091 (0x443)
Menu ID                                  : 10090 (0x276A)
Format                                   : AVC
Format/Info                              : Advanced Video Codec
Format profile                           : High@L4
Format settings                          : CABAC / 3 Ref Frames
Format settings, CABAC                   : Yes
Format settings, RefFrames               : 3 frames
Format settings, GOP                     : M=4, N=32
Codec ID                                 : 27
Duration                                 : 53 min 6 s
Bit rate                                 : 2 523 kb/s
Width                                    : 1 920 pixels
Height                                   : 1 080 pixels
Display aspect ratio                     : 16:9
Frame rate                               : 25.000 FPS
Standard                                 : Component
Color space                              : YUV
Chroma subsampling                       : 4:2:0
Bit depth                                : 8 bits
Scan type                                : Interlaced
Scan type, store method                  : Separated fields
Scan order                               : Top Field First
Bits/(Pixel*Frame)                       : 0.049
Stream size                              : 958 MiB (84%)
Color range                              : Limited
Color primaries                          : BT.709
Transfer characteristics                 : BT.709
Matrix coefficients                      : BT.709
Audio #1
ID                                       : 1092 (0x444)
Menu ID                                  : 10090 (0x276A)
Format                                   : MPEG Audio
Format version                           : Version 1
Format profile                           : Layer 2
Codec ID                                 : 3
Duration                                 : 53 min 6 s
Bit rate mode                            : Constant
Bit rate                                 : 160 kb/s
Channel(s)                               : 2 channels
Sampling rate                            : 48.0 kHz
Frame rate                               : 41.667 FPS (1152 SPF)
Compression mode                         : Lossy
Stream size                              : 60.8 MiB (5%)
Language                                 : Russian
Audio #2
ID                                       : 1093 (0x445)
Menu ID                                  : 10090 (0x276A)
Format                                   : MPEG Audio
Format version                           : Version 1
Format profile                           : Layer 2
Codec ID                                 : 3
Duration                                 : 53 min 5 s
Bit rate mode                            : Constant
Bit rate                                 : 160 kb/s
Channel(s)                               : 2 channels
Sampling rate                            : 48.0 kHz
Frame rate                               : 41.667 FPS (1152 SPF)
Compression mode                         : Lossy
Stream size                              : 60.8 MiB (5%)
Language                                 : English
Text #1
ID                                       : 1097 (0x449)
Menu ID                                  : 10090 (0x276A)
Format                                   : DVB Subtitle
Codec ID                                 : 6
Delay relative to video                  : 4 s 709 ms
Language                                 : Croatian
Text #2
ID                                       : 1098 (0x44A)
Menu ID                                  : 10090 (0x276A)
Format                                   : DVB Subtitle
Codec ID                                 : 6
Delay relative to video                  : 5 s 70 ms
Language                                 : Macedonian
Text #3
ID                                       : 1099 (0x44B)
Menu ID                                  : 10090 (0x276A)
Format                                   : DVB Subtitle
Codec ID                                 : 6
Delay relative to video                  : 4 s 709 ms
Language                                 : Bulgarian
 
Не забывайте говорить Спасибо. Не уходите с раздачи!   
Торрент: Зарегистрирован [13 июн 2018, 17:00] Для скачивания .torrent
необходима регистрация
Или скачать с помощью
MediaGet
Статус:
Проверен
 
.torrent скачан: 0 раз
Хэш: f5b5a51c47d7489c3efe857ee7a2699ad5d0b25f
Размер: 1.11 ГБ (1 192 303 144 байт)
Стать Автором раздачи
 
 
Раздал: 0 байт
Скачал: 0 байт
Ратио: Inf.
Сообщения: 471569
Зарегистрирован: 17 апр 2014, 13:57


  • Похожие торренты
    Ответы
    Просмотры
    Последнее сообщение

Вернуться в Документальные (HD Video)

Ресурс не предоставляет электронные версии произведений, а занимается лишь коллекционированием и каталогизацией ссылок, присылаемых и публикуемых на форуме нашими читателями. Если вы являетесь правообладателем какого-либо представленного материала и не желаете чтобы ссылка на него находилась в нашем каталоге, свяжитесь с нами и мы незамедлительно удалим её. Файлы для обмена на трекере предоставлены пользователями сайта, и администрация не несёт ответственности за их содержание. Просьба не заливать файлы, защищенные авторскими правами, а также файлы нелегального содержания!
cron