Желтая птица (Амиран Дарсавелидзе) [1983, Драма, музыкальный, TVRip]

 
 Статистика раздачи 
Размер: 699.71 МБ   |  Зарегистрирован: 13 июн 2018, 17:00   |   .torrent скачан: 0 раз
Сидеров: 1  [ 0 байт/сек ]     Личеров: 0  [ 0 байт/сек ]  
  

Желтая птица (Амиран Дарсавелидзе) [1983, Драма, музыкальный, TVRip]

Сообщение Nakazhu » 13 июн 2018, 17:00

Желтая птица

Жанр: Драма, музыкальный
Год выпуска: 1983
Продолжительность: 01:11:37
Режиссёр: Амиран Дарсавелидзе
В ролях:
Гюли Чохели
Лали Колелишвили
Гурам Пирцхалава
Ираклий Перадзе
Марина Кахиани
Гиви Берикашвили
Темур Рцхиладзе
Мурман Джинория
Василий Кахниашвили
Роман Рцхиладзе
Русудан Квливидзе
Описание: Эстрадная певица Нино Мтиули потеряла веру в себя - нет былой популярности у публики, неудачно сложилась личная жизнь.
Однако она постепенно обретает уверенность, что сможет выйти из творческого кризиса...
Доп. информация:

Качество видео: TVRip
Формат видео: AVI
Видео: 720x544 (1.32:1), 25 fps, XviD MPEG-4 ~1228 kbps avg, 0.13 bit/pixel
Аудио: 48 kHz, MPEG Layer 3, 2 ch, ~128.00 kbps avg
Complete name : Zheltaya.ptica.1983.TVRip.fenixclub.avi
Format : AVI
Format/Info : Audio Video Interleave
File size : 700 MiB
Duration : 1h 11mn
Overall bit rate : 1 366 Kbps
Writing application : VirtualDubModRus 1.5.10.2 (build 2542/release)
Writing library : VirtualDub build 32842/release
Video
ID : 0
Format : MPEG-4 Visual
Format profile : Advanced Simple@L5
Format settings, BVOP : Yes
Format settings, QPel : No
Format settings, GMC : No warppoints
Format settings, Matrix : Default (MPEG)
Codec ID : XVID
Codec ID/Hint : XviD
Duration : 1h 11mn
Bit rate : 1 228 Kbps
Width : 720 pixels
Height : 544 pixels
Display aspect ratio : 4:3
Frame rate : 25.000 fps
Color space : YUV
Chroma subsampling : 4:2:0
Bit depth : 8 bits
Scan type : Progressive
Compression mode : Lossy
Bits/(Pixel*Frame) : 0.125
Stream size : 629 MiB (90%)
Writing library : XviD 73
Audio
ID : 1
Format : MPEG Audio
Format version : Version 1
Format profile : Layer 3
Mode : Joint stereo
Mode extension : MS Stereo
Codec ID : 55
Codec ID/Hint : MP3
Duration : 1h 11mn
Bit rate mode : Constant
Bit rate : 128 Kbps
Channel(s) : 2 channels
Sampling rate : 48.0 KHz
Compression mode : Lossy
Stream size : 65.6 MiB (9%)
Alignment : Split accross interleaves
Interleave, duration : 40 ms (1.00 video frame)
Interleave, preload duration : 500 ms



 
Не забывайте говорить Спасибо. Не уходите с раздачи!   
Торрент: Зарегистрирован [13 июн 2018, 17:00] Для скачивания .torrent
необходима регистрация
Или скачать с помощью
MediaGet
Статус:
Проверен
 
.torrent скачан: 0 раз
Хэш: acd5f918e7fcb43211e842db2ded44197ed1e904
Размер: 699.71 МБ (733 694 696 байт)
Стать Автором раздачи
 
 
Раздал: 0 байт
Скачал: 0 байт
Ратио: Inf.
Сообщения: 487468
Зарегистрирован: 17 апр 2014, 13:57


  • Похожие торренты
    Ответы
    Просмотры
    Последнее сообщение

Вернуться в Кино СССР, Советской России, Российской республики (1917-1991)

Ресурс не предоставляет электронные версии произведений, а занимается лишь коллекционированием и каталогизацией ссылок, присылаемых и публикуемых на форуме нашими читателями. Если вы являетесь правообладателем какого-либо представленного материала и не желаете чтобы ссылка на него находилась в нашем каталоге, свяжитесь с нами и мы незамедлительно удалим её. Файлы для обмена на трекере предоставлены пользователями сайта, и администрация не несёт ответственности за их содержание. Просьба не заливать файлы, защищенные авторскими правами, а также файлы нелегального содержания!
cron