Как быть мужиком / How to be a man (Чадд Харбольд / Chadd Harbold) [2013, США, Комедия, BDRip 1080p] MVO + Original Rus

 
 Статистика раздачи 
Размер: 4.18 ГБ   |  Зарегистрирован: 13 июн 2018, 14:55   |   .torrent скачан: 0 раз
Сидеров: 1  [ 0 байт/сек ]     Личеров: 0  [ 0 байт/сек ]  
  

Как быть мужиком / How to be a man (Чадд Харбольд / Chadd Harbold) [2013, США, Комедия, BDRip 1080p] MVO + Original Rus

Сообщение Nakazhu » 13 июн 2018, 14:55

Как быть мужиком / How to be a man
Страна: США
Жанр: Комедия
Год выпуска: 2013
Продолжительность: 01:25:37
Перевод: Любительский (многоголосый закадровый)
Субтитры: нет
Оригинальная аудиодорожка: русский
Режиссер: Чадд Харбольд / Chadd Harbold
В ролях: Гэвин МакИннесс, Лиам Эйкен, Меган Нуринджер, Мариса Реданти, Хелен Роджерс, Жасмин Осборн, Дарио Бароссо, Ллойд ДеЛеон, Саманта Масел, Майк Келлер
Описание: Марк думает, что умирает, и решает записать серию обучающих видео для своего нерождённого сына, призванных воспитать в нём настоящего мужика. Старая знакомая натыкается на его пост на фейсбуке и предлагает своему сыну-выпускнику киношколы помочь Марку со съёмками. Они, разумеется, попадают в множество комических ситуаций и оба обязательно многому научатся незадолго до титров. Как и все мы.
Сэмпл: http://multi-up.com/1201407
Тип релиза: BDRip 1080p
Контейнер: MKV
Видео: 6200 Кбит/сек, 1920x1080 (1.778), 23.976 fps
Аудио: Русский: AC-3, 192 Кбит/сек, 2 канала, 48,0 КГц
Аудио 2: Английский: AC-3, 640 Кбит/сек, 6 каналов, 48,0 КГц
General
Unique ID : 57258303770316290172795012716220236494 (0x2B138C557FAD901CD3FA7E1F62A9C2CE)
Complete name : /home/sergey/Downloads/How.to.Be.a.Man.2013.1080p.WEB-DL.mkv
Format : Matroska
Format version : Version 4 / Version 2
File size : 4.18 GiB
Duration : 1 h 25 min
Overall bit rate : 6 987 kb/s
Movie name : How.to.Be.a.Man.2013.1080p.WEB-DL.DD5.1.H264
Encoded date : UTC 2018-06-13 00:42:48
Writing application : mkvmerge v24.0.0 ('Beyond The Pale') 64-bit
Writing library : libebml v1.3.6 + libmatroska v1.4.9
Video
ID : 1
Format : AVC
Format/Info : Advanced Video Codec
Format profile : High@L4.1
Format settings : CABAC / 4 Ref Frames
Format settings, CABAC : Yes
Format settings, ReFrames : 4 frames
Codec ID : V_MPEG4/ISO/AVC
Duration : 1 h 25 min
Bit rate : 6 200 kb/s
Width : 1 920 pixels
Height : 1 080 pixels
Display aspect ratio : 16:9
Frame rate mode : Constant
Frame rate : 23.976 (24000/1001) FPS
Color space : YUV
Chroma subsampling : 4:2:0
Bit depth : 8 bits
Scan type : Progressive
Bits/(Pixel*Frame) : 0.125
Stream size : 3.68 GiB (88%)
Title : How.to.Be.a.Man.2013.1080p.WEB-DL.DD5.1.H264-RARBG
Writing library : x264 core 142 r2431 ac76440
Encoding settings : cabac=1 / ref=4 / deblock=1:0:0 / analyse=0x3:0x113 / me=umh / subme=8 / psy=1 / psy_rd=1.00:0.00 / mixed_ref=1 / me_range=16 / chroma_me=1 / trellis=1 / 8x8dct=1 / cqm=0 / deadzone=21,11 / fast_pskip=1 / chroma_qp_offset=-2 / threads=12 / lookahead_threads=2 / sliced_threads=0 / nr=0 / decimate=1 / interlaced=0 / bluray_compat=0 / constrained_intra=0 / bframes=3 / b_pyramid=2 / b_adapt=2 / b_bias=0 / direct=3 / weightb=1 / open_gop=0 / weightp=2 / keyint=240 / keyint_min=24 / scenecut=40 / intra_refresh=0 / rc_lookahead=50 / rc=abr / mbtree=1 / bitrate=6200 / ratetol=1.0 / qcomp=0.60 / qpmin=0 / qpmax=69 / qpstep=4 / vbv_maxrate=62500 / vbv_bufsize=78125 / nal_hrd=none / filler=0 / ip_ratio=1.40 / aq=1:1.00
Default : Yes
Forced : No
Color range : Limited
Color primaries : BT.709
Transfer characteristics : BT.709
Matrix coefficients : BT.709
Audio #1
ID : 2
Format : AC-3
Format/Info : Audio Coding 3
Codec ID : A_AC3
Duration : 1 h 25 min
Bit rate mode : Constant
Bit rate : 192 kb/s
Channel(s) : 2 channels
Channel positions : Front: L R
Sampling rate : 48.0 kHz
Frame rate : 31.250 FPS (1536 SPF)
Bit depth : 16 bits
Compression mode : Lossy
Stream size : 118 MiB (3%)
Title : Любительский многоголосый
Language : Russian
Service kind : Complete Main
Default : Yes
Forced : No
Audio #2
ID : 3
Format : AC-3
Format/Info : Audio Coding 3
Codec ID : A_AC3
Duration : 1 h 25 min
Bit rate mode : Constant
Bit rate : 640 kb/s
Channel(s) : 6 channels
Channel positions : Front: L C R, Side: L R, LFE
Sampling rate : 48.0 kHz
Frame rate : 31.250 FPS (1536 SPF)
Bit depth : 16 bits
Compression mode : Lossy
Stream size : 392 MiB (9%)
Title : How.to.Be.a.Man.2013.1080p.WEB-DL.DD5.1.H264-RARBG
Language : English
Service kind : Complete Main
Default : No
Forced : No
 
Не забывайте говорить Спасибо. Не уходите с раздачи!   
Торрент: Зарегистрирован [13 июн 2018, 14:55] Для скачивания .torrent
необходима регистрация
Или скачать с помощью
MediaGet
Статус:
Проверен
 
.torrent скачан: 0 раз
Хэш: 62246f3ae6f8cd290a5ca474924bc34471a17615
Размер: 4.18 ГБ (4 486 941 475 байт)
Стать Автором раздачи
 
 
Раздал: 0 байт
Скачал: 0 байт
Ратио: Inf.
Сообщения: 487468
Зарегистрирован: 17 апр 2014, 13:57


  • Похожие торренты
    Ответы
    Просмотры
    Последнее сообщение

Вернуться в HD Video на модерации

Ресурс не предоставляет электронные версии произведений, а занимается лишь коллекционированием и каталогизацией ссылок, присылаемых и публикуемых на форуме нашими читателями. Если вы являетесь правообладателем какого-либо представленного материала и не желаете чтобы ссылка на него находилась в нашем каталоге, свяжитесь с нами и мы незамедлительно удалим её. Файлы для обмена на трекере предоставлены пользователями сайта, и администрация не несёт ответственности за их содержание. Просьба не заливать файлы, защищенные авторскими правами, а также файлы нелегального содержания!
cron