Любовники / Два любовника / Two Lovers (Джеймс Грэй / James Gray) [2008, США, драма, мелодрама, BDRip] AVO (Сергей Визгунов)

 
 Статистика раздачи 
Размер: 1.47 ГБ   |  Зарегистрирован: 13 июн 2018, 14:41   |   .torrent скачан: 0 раз
Сидеров: 1  [ 0 байт/сек ]     Личеров: 0  [ 0 байт/сек ]  
  

Любовники / Два любовника / Two Lovers (Джеймс Грэй / James Gray) [2008, США, драма, мелодрама, BDRip] AVO (Сергей Визгунов)

Сообщение Nakazhu » 13 июн 2018, 14:41

Любовники / Два любовника / Two Lovers
Страна: США
Жанр: драма, мелодрама
Год выпуска: 2008
Продолжительность: 01:50:07
Перевод: Авторский (одноголосый закадровый) Сергей Визгунов
Субтитры: нет
Режиссер: Джеймс Грэй / James Gray
В ролях: Хоакин Феникс, Гвинет Пэлтроу, Винесса Шоу, Изабелла Росселлини, Элиас Котеас, Мони Мошонов, Дэвид Кейл, Ник Джилли, Кармен М. Херлихи
Описание: Леонард - харизматичный, но потерянный молодой человек, после недавнего горя возвращается в дом своего детства - в замкнутый мир Брайтон Бич. Выздоравливая под осторожным присмотром родителей, Леонард встречает двух женщин: Мишель, таинственную и красиваю соседку, которая экзотична и неуместна в уравновешенном мире Леонарда, и Сандру, прекрасную и заботливую дочь бизнесмена, который выкупает бизнес химчистки у его семьи. Леонард искренне и глубоко увлечен Мишель, которая, кажется, также склонна влюбиться в его, но связана с женатым мужчиной. В то же самое время, давление его семьи побуждает Леонарда удерживать связь с Сандрой. Леонард вынужден сделать выбор между порывистостью желания, комфортом любви и риском отступить в темноту, которая почти убила его....

Сэмпл: http://multi-up.com/1201412
Качество видео: BDRip (Исходник BDRemux 1080p)
Формат видео: AVI
Видео: XviD 73, 720x304, (2,35:1), 23,976 fps, 1459 Кбит/с, 8 бит, 0.28 bit/pixel
Аудио: Русский (АС3, 6 ch (Front: L C R, Side: L R, LFE), 48,0 KHz, 448 Kbps)
Код: Выделить всё
Общее
Полное имя                               : H:\Фильмы на трекер\Любовники  (драма, мелодрама 2008 год).avi
Формат                                   : AVI
Формат/Информация                        : Audio Video Interleave
Размер файла                             : 1,47 Гбайт
Продолжительность                        : 1 ч. 50 м.
Общий поток                              : 1916 Кбит/сек
Программа кодирования                    : VirtualDubMod 1.5.10.2 (build 2540/release)
Библиотека кодирования                   : VirtualDubMod build 2540/release
Видео
Идентификатор                            : 0
Формат                                   : MPEG-4 Visual
Профиль формата                          : Advanced Simple@L5
Параметр BVOP формата                    : 2
Параметр QPel формата                    : Нет
Параметр GMC формата                     : Без точки перехода
Параметр матрицы формата                 : Выборочная
Идентификатор кодека                     : XVID
Идентификатор кодека/Подсказка           : XviD
Продолжительность                        : 1 ч. 50 м.
Битрейт                                  : 1459 Кбит/сек
Ширина                                   : 720 пикселей
Высота                                   : 304 пикселя
Соотношение сторон                       : 2,35:1
Частота кадров                           : 23,976 (23976/1000) кадра/сек
Цветовое пространство                    : YUV
Субдискретизация насыщенности            : 4:2:0
Битовая глубина                          : 8 бит
Тип развёртки                            : Прогрессивная
Метод сжатия                             : С потерями
Бит/(Пиксели*Кадры)                      : 0.278
Размер потока                            : 1,12 Гбайт (76%)
Библиотека кодирования                   : XviD 73
Аудио
Идентификатор                            : 1
Формат                                   : AC-3
Формат/Информация                        : Audio Coding 3
Расширение режима                        : CM (complete main)
Параметр Endianness формата              : Big
Идентификатор кодека                     : 2000
Продолжительность                        : 1 ч. 50 м.
Вид битрейта                             : Постоянный
Битрейт                                  : 448 Кбит/сек
Каналы                                   : 6 каналов
Расположение каналов                     : Front: L C R, Side: L R, LFE
Частота                                  : 48,0 КГц
Частота кадров                           : 31,250 кадров/сек (1536 spf)
Метод сжатия                             : С потерями
Размер потока                            : 353 Мбайт (23%)
Выравнивание                             : Разделение по промежуткам
Продолжительность промежутка             : 42  мс. (1,00 видеокадр)
Время предзагрузки промежутка            : 500  мс.
 
Не забывайте говорить Спасибо. Не уходите с раздачи!   
Торрент: Зарегистрирован [13 июн 2018, 14:41] Для скачивания .torrent
необходима регистрация
Или скачать с помощью
MediaGet
Статус:
Проверен
 
.torrent скачан: 0 раз
Хэш: c3dce65ec8ca1ab2a8f26804984e6e7df46381e7
Размер: 1.47 ГБ (1 582 456 832 байт)
Стать Автором раздачи
 
 
Раздал: 0 байт
Скачал: 0 байт
Ратио: Inf.
Сообщения: 471952
Зарегистрирован: 17 апр 2014, 13:57


  • Похожие торренты
    Ответы
    Просмотры
    Последнее сообщение

Вернуться в Зарубежные фильмы 2006-2010 года

Ресурс не предоставляет электронные версии произведений, а занимается лишь коллекционированием и каталогизацией ссылок, присылаемых и публикуемых на форуме нашими читателями. Если вы являетесь правообладателем какого-либо представленного материала и не желаете чтобы ссылка на него находилась в нашем каталоге, свяжитесь с нами и мы незамедлительно удалим её. Файлы для обмена на трекере предоставлены пользователями сайта, и администрация не несёт ответственности за их содержание. Просьба не заливать файлы, защищенные авторскими правами, а также файлы нелегального содержания!
cron