Дестроер / Ремо Уильямс: Приключение начинается / Римо Уильямс: Невооружен и опасен / Remo Williams: The Adventure Begins (Гай Хэмилтон / Guy Hamilton) [1985, США, боевик, DVDRip] DVO (Екатеринбург Арт)

 
 Статистика раздачи 
Размер: 1.46 ГБ   |  Зарегистрирован: 12 июн 2018, 15:41   |   .torrent скачан: 0 раз
Сидеров: 1  [ 0 байт/сек ]     Личеров: 0  [ 0 байт/сек ]  
  

Дестроер / Ремо Уильямс: Приключение начинается / Римо Уильямс: Невооружен и опасен / Remo Williams: The Adventure Begins (Гай Хэмилтон / Guy Hamilton) [1985, США, боевик, DVDRip] DVO (Екатеринбург Арт)

Сообщение Nakazhu » 12 июн 2018, 15:41

Дестроер / Ремо Уильямс: Приключение начинается / Римо Уильямс: Невооружен и опасен / Remo Williams: The Adventure Begins
Страна: США
Жанр: боевик
Год выпуска: 1985
Продолжительность: 02:01:25
Перевод: Профессиональный (двухголосый закадровый) Екатеринбург Арт
Субтитры: нет
Оригинальная аудиодорожка: нет
Режиссер: Гай Хэмилтон / Guy Hamilton
В ролях: Фред Уорд, Джоэл Грей, Уилфорд Бримли, Дж. А. Престон, Джордж Коу, Патрик Килпатрик
Описание: Полицейский из Нью-Йорка Римо Уильямс становится участником сверхсекретного проекта. Для того, чтобы безымянная организация могла предъявить счет самым влиятельным и могущественным злодеям США, которые пользуясь лазейками в конституции остаются безнаказанными, Римо должен стать карающим мечом этой организации.
Его наставником в смертельно опасном боевом корейском искусстве Синанджу, уходящем своими корнями в глубь веков источнике всех стилей восточных единоборств, становится Мастер Синанджу Чиун. Он обучает Римо «изящному искусству думать кулаками и драться мозгами».
Между старым корейцем, совершенно не разбирающемся в современных западных технологиях, и его первым в истории Синанджу «белым» учеником завязывается крепкая дружба. Вскоре Римо получает первое настоящее задание.
Доп. информация:
Видеоряд взят из этой раздачи http://rutracker.org/forum/viewtopic.php?t=5556283, за которую благодарим Leonard Lew.
За звуковую дорожку с лицензионной кассеты и её синхронизацию огромная благодарность shocker80.
Данный перевод на трекере впервые!
Мужские роли озвучивал Дмитрий Полонский.
Сэмпл: https://www.sendspace.com/file/t6r597
Качество видео: DVDRip
Формат видео: AVI
Видео: 640x480, 23.976 fps, MPEG-4 Visual, 1524 Kbps, XviD 73
Аудио: 48 KHz, AC3, 2 ch, 192 Kbps
Код: Выделить всё
General
Complete name                            : C:\Users\Сергей\Downloads\Дестройер (ЕА).avi
Format                                   : AVI
Format/Info                              : Audio Video Interleave
File size                                : 1.46 GiB
Duration                                 : 2h 1mn
Overall bit rate                         : 1 726 Kbps
Writing application                      : VirtualDubMod 1.5.10.2 (build 2540/release)
Writing library                          : VirtualDubMod build 2540/release
Video
ID                                       : 0
Format                                   : MPEG-4 Visual
Format profile                           : Advanced Simple@L5
Format settings, BVOP                    : 2
Format settings, QPel                    : No
Format settings, GMC                     : No warppoints
Format settings, Matrix                  : Custom
Codec ID                                 : XVID
Codec ID/Hint                            : XviD
Duration                                 : 2h 1mn
Bit rate                                 : 1 524 Kbps
Width                                    : 640 pixels
Height                                   : 480 pixels
Display aspect ratio                     : 4:3
Frame rate                               : 23.976 fps
Color space                              : YUV
Chroma subsampling                       : 4:2:0
Bit depth                                : 8 bits
Scan type                                : Progressive
Compression mode                         : Lossy
Bits/(Pixel*Frame)                       : 0.207
Stream size                              : 1.29 GiB (88%)
Writing library                          : XviD 73
Audio
ID                                       : 1
Format                                   : AC-3
Format/Info                              : Audio Coding 3
Mode extension                           : CM (complete main)
Format settings, Endianness              : Big
Codec ID                                 : 2000
Duration                                 : 2h 1mn
Bit rate mode                            : Constant
Bit rate                                 : 192 Kbps
Channel(s)                               : 2 channels
Channel positions                        : Front: L R
Sampling rate                            : 48.0 KHz
Bit depth                                : 16 bits
Compression mode                         : Lossy
Stream size                              : 167 MiB (11%)
Alignment                                : Split accross interleaves
Interleave, duration                     : 42 ms (1.00 video frame)
Interleave, preload duration             : 500 ms
 
Не забывайте говорить Спасибо. Не уходите с раздачи!   
Торрент: Зарегистрирован [12 июн 2018, 15:41] Скачать торрент
Скачать торрент
[ Размер 15.15 КБ / Просмотров 2 ]
Статус:
Проверен
 
.torrent скачан: 0 раз
Хэш: c8fb228490e32c59fec5eb36ab7cfe779ebfec5e
Размер: 1.46 ГБ (1 571 571 712 байт)
Стать Автором раздачи
 
 
Раздал: 0 байт
Скачал: 0 байт
Ратио: Inf.
Сообщения: 487468
Зарегистрирован: 17 апр 2014, 13:57


  • Похожие торренты
    Ответы
    Просмотры
    Последнее сообщение

Вернуться в Зарубежные фильмы до 1990 года

Ресурс не предоставляет электронные версии произведений, а занимается лишь коллекционированием и каталогизацией ссылок, присылаемых и публикуемых на форуме нашими читателями. Если вы являетесь правообладателем какого-либо представленного материала и не желаете чтобы ссылка на него находилась в нашем каталоге, свяжитесь с нами и мы незамедлительно удалим её. Файлы для обмена на трекере предоставлены пользователями сайта, и администрация не несёт ответственности за их содержание. Просьба не заливать файлы, защищенные авторскими правами, а также файлы нелегального содержания!
cron