Черный котел / The Black Cauldron (1985) WEB-DL 1080p от KORSAR | D, A

 
 Статистика раздачи 
Размер: 6.96 ГБ   |  Зарегистрирован: 12 июн 2018, 10:26   |   .torrent скачан: 249 раз
Сидеров: 44  [ 0 байт/сек ]     Личеров: 40  [ 0 байт/сек ]  
  

Черный котел / The Black Cauldron (1985) WEB-DL 1080p от KORSAR | D, A

Сообщение graf_t » 12 июн 2018, 10:26

Название: Черный котел
Оригинальное название: The Black Cauldron
Год выпуска: 1985
Выпущено: США, Walt Disney Pictures, Silver Screen Partners II
Жанр: Мультфильм, приключения, семейный, детский, экранизация, полнометражный
Режиссер: Тед Берман, Ричард Рич
В ролях: Грант Бардсли, Сьюзэн Шеридан, Фредди Джонс, Найджел Хоторн, Артур Мэлет, Джон Байнер, Линдсэй Рич, Брэндон Колл, Грегори Левинсон, Эда Рейсс Мерин

О фильме: Главный герой — Таран, мальчик-свинопас, мечтающий стать великим воином и защитником родного Придейна. Его антагонист — злой и могущественный Рогатый король, вознамерившийся завладеть Чёрным котлом и с помощью заключённой в нём силы воскресить армию нежити и покорить мир. Однако найти Чёрный котёл — непростая задача. Его местонахождение может указать волшебная свинка Хен Вен, живущая у старого волшебника Даллбена. Узнав о намерениях Рогатого короля, Даллбен поручает Тарану отвести свинку в надёжное место. По дороге Таран теряет Хен Вен, и начинаются его приключения. Мультфильм поставлен по мотивам рассказов популярного детского писателя Ллойда Александера.

Продолжительность: 01:20:08
Перевод: Дублированный, авторский
Субтитры: Русские, английские
Навигация по главам: Есть

Файл
Качество: WEB-DL 1080p
Видео: MPEG-4 AVC, 10,8 Мбит/сек, 1920x816, 23,976 кадра/сек
Аудио #1: AC3, 2 ch, 192 Кбит/сек | Русский, профессиональный (полное дублирование) Пифагор
Аудио #2: AC3, 6 ch, 384 Кбит/сек | Русский, авторский (одноголосый закадровый) Юрий Живов
Аудио #3: AC3, 2 ch, 192 Кбит/сек | Русский, авторский (одноголосый закадровый) Николай Антонов
Аудио #4: EAC3, 6 ch, 640 Кбит/сек | Английский, оригинал




Общее
Уникальный идентификатор : 192370753127900640005286070745585184620 (0x90B9426735581DB18B23141E04306F6C)
Полное имя : Черный.котел.1985.WEB-DL.1080p.mkv
Формат : Matroska
Версия формата : Version 2
Размер файла : 6,96 Гбайт
Продолжительность : 1 ч. 20 м.
Режим общего битрейта : Переменный
Общий поток : 12,4 Мбит/сек
Название фильма :
Дата кодирования : UTC 2018-06-10 21:05:53
Программа кодирования : mkvmerge v5.8.0 ('No Sleep / Pillow') built on Sep 2 2012 15:37:04
Библиотека кодирования : libebml v1.2.3 + libmatroska v1.3.0

Видео
Идентификатор : 1
Формат : AVC
Формат/Информация : Advanced Video Codec
Профиль формата : High@L4
Настройки формата : CABAC / 4 Ref Frames
Параметр CABAC формата : Да
Параметр RefFrames формата : 4 кадра
Идентификатор кодека : V_MPEG4/ISO/AVC
Продолжительность : 1 ч. 20 м.
Вид битрейта : Переменный
Битрейт : 10,8 Мбит/сек
Максимальный битрейт : 15,0 Мбит/сек
Ширина : 1920 пикселей
Высота : 816 пикселей
Соотношение сторон : 2,35:1
Режим частоты кадров : Постоянный
Частота кадров : 23,976 (24000/1001) кадра/сек
Цветовое пространство : YUV
Субдискретизация насыщенности : 4:2:0
Битовая глубина : 8 бит
Тип развёртки : Прогрессивная
Бит/(Пиксели*Кадры) : 0.287
Размер потока : 6,04 Гбайт (87%)
Библиотека кодирования : x264 core 148 r2623 d5b2374
Настройки программы : cabac=1 / ref=4 / deblock=1:-1:-1 / analyse=0x3:0x133 / me=umh / subme=9 / psy=1 / psy_rd=1.00:0.15 / mixed_ref=1 / me_range=24 / chroma_me=1 / trellis=2 / 8x8dct=1 / cqm=0 / deadzone=21,11 / fast_pskip=1 / chroma_qp_offset=-3 / threads=25 / lookahead_threads=4 / sliced_threads=0 / nr=150 / decimate=1 / interlaced=0 / bluray_compat=0 / constrained_intra=0 / bframes=8 / b_pyramid=2 / b_adapt=2 / b_bias=0 / direct=3 / weightb=1 / open_gop=0 / weightp=2 / keyint=120 / keyint_min=61 / scenecut=0 / intra_refresh=0 / rc_lookahead=120 / rc=crf / mbtree=1 / crf=18.0 / qcomp=0.60 / qpmin=0 / qpmax=69 / qpstep=4 / vbv_maxrate=15000 / vbv_bufsize=31250 / crf_max=0.0 / nal_hrd=vbr / filler=0 / ip_ratio=1.40 / aq=3:1.00
Язык : English
Default : Да
Forced : Нет
Цветовой диапазон : Limited
Основные цвета : BT.709
Характеристики трансфера : BT.709
Коэффициенты матрицы : BT.709

Аудио #1
Идентификатор : 2
Формат : AC-3
Формат/Информация : Audio Coding 3
Идентификатор кодека : A_AC3
Продолжительность : 1 ч. 20 м.
Вид битрейта : Постоянный
Битрейт : 192 Кбит/сек
Каналы : 2 канала
Расположение каналов : Front: L R
Частота : 48,0 КГц
Частота кадров : 31,250 кадров/сек (1536 SPF)
Битовая глубина : 16 бит
Метод сжатия : С потерями
Размер потока : 110 Мбайт (2%)
Заголовок : DUB | Пифагор
Язык : Russian
По умолчанию : Да
Принудительно : Нет

Аудио #2
Идентификатор : 3
Формат : AC-3
Формат/Информация : Audio Coding 3
Идентификатор кодека : A_AC3
Продолжительность : 1 ч. 20 м.
Вид битрейта : Постоянный
Битрейт : 384 Кбит/сек
Каналы : 6 каналов
Расположение каналов : Front: L C R, Side: L R, LFE
Частота : 48,0 КГц
Частота кадров : 31,250 кадров/сек (1536 SPF)
Битовая глубина : 16 бит
Метод сжатия : С потерями
Размер потока : 220 Мбайт (3%)
Заголовок : AVO | Ю. Живов
Язык : Russian
По умолчанию : Нет
Принудительно : Нет

Аудио #3
Идентификатор : 4
Формат : AC-3
Формат/Информация : Audio Coding 3
Идентификатор кодека : A_AC3
Продолжительность : 1 ч. 20 м.
Вид битрейта : Постоянный
Битрейт : 192 Кбит/сек
Каналы : 1 канал
Расположение каналов : Front: C
Частота : 48,0 КГц
Частота кадров : 31,250 кадров/сек (1536 SPF)
Битовая глубина : 16 бит
Метод сжатия : С потерями
Размер потока : 110 Мбайт (2%)
Заголовок : AVO | Н. Антонов
Язык : Russian
По умолчанию : Нет
Принудительно : Нет

Аудио #4
Идентификатор : 5
Формат : E-AC-3
Формат/Информация : Enhanced Audio Coding 3
Идентификатор кодека : A_EAC3
Продолжительность : 1 ч. 20 м.
Вид битрейта : Постоянный
Битрейт : 640 Кбит/сек
Каналы : 6 каналов
Расположение каналов : Front: L C R, Side: L R, LFE
Частота : 48,0 КГц
Частота кадров : 187,500 кадров/сек (256 SPF)
Метод сжатия : С потерями
Размер потока : 367 Мбайт (5%)
Заголовок : Original
Язык : English
По умолчанию : Нет
Принудительно : Нет

Текст #1
Идентификатор : 6
Формат : UTF-8
Идентификатор кодека : S_TEXT/UTF8
Идентификатор кодека/Информация : UTF-8 Plain Text
Язык : Russian
По умолчанию : Нет
Принудительно : Нет

Текст #2
Идентификатор : 7
Формат : UTF-8
Идентификатор кодека : S_TEXT/UTF8
Идентификатор кодека/Информация : UTF-8 Plain Text
Язык : English
По умолчанию : Нет
Принудительно : Нет

Текст #3
Идентификатор : 8
Формат : UTF-8
Идентификатор кодека : S_TEXT/UTF8
Идентификатор кодека/Информация : UTF-8 Plain Text
Заголовок : SDH 1
Язык : English
По умолчанию : Нет
Принудительно : Нет

Текст #4
Идентификатор : 9
Формат : UTF-8
Идентификатор кодека : S_TEXT/UTF8
Идентификатор кодека/Информация : UTF-8 Plain Text
Заголовок : SDH 2
Язык : English
По умолчанию : Нет
Принудительно : Нет

Меню
00:00:00.000 : en:Studio Logo
00:00:19.000 : en:The Legend of the Black Cauldron, Opening Credits
00:01:23.000 : en:Dallben Fears Something Is Wrong
00:03:21.000 : en:Taran Dreams of Being a Warrior
00:06:33.000 : en:Dallben Uses Hen Wen's Powers
00:09:34.000 : en:The Horned King Makes a Vow
00:11:24.000 : en:Taran and Hen Wen Start Their Journey
00:15:39.000 : en:Taran Tries to Save Hen Wen
00:18:19.000 : en:Taran Tries to Find Hen Wen
00:21:02.000 : en:Hen Wen Is Brought to the Horned King
00:23:42.000 : en:Taran Tries to Escape
00:26:07.000 : en:Taran Regrets His Actions
00:28:17.000 : en:Taran and Eilonwy Search
00:30:22.000 : en:Taran and Eilonwy Meet Fflewddur
00:32:29.000 : en:Taran Makes a Discovery
00:34:27.000 : en:Taran, Eilonwy, and Fflewddur Try to Escape
00:36:05.000 : en:Creeper Gives Horned King the News
00:37:59.000 : en:Eilonwy and Taran Argue
00:39:53.000 : en:Taran Apologizes to Eilonwy
00:42:30.000 : en:The Group Tries to Find Hen Wen
00:44:07.000 : en:The Group Meet the Fairfolks
00:48:47.000 : en:The Search for the Black Cauldron Continues
00:50:43.000 : en:The Witches Torment Fflewddur
00:52:57.000 : en:Taran Asks for the Black Cauldron
00:56:21.000 : en:The Witches Offer a Warning
00:58:10.000 : en:Doli Leaves in Anger and Taran Tries to Believe in Himself
00:59:49.000 : en:The Horned King Executes His Plan
01:01:53.000 : en:Dead Warriors Awaken and Gurgi Tries to Help
01:05:22.000 : en:The Horned King Tries to Attack Taran
01:08:18.000 : en:The Horned King's Castle Is Destroyed
01:10:58.000 : en:Taran Tries to Strike another Bargain with the Witches
01:14:01.000 : en:Gurgi Is Returned
01:16:04.000 : en:End Credits

• Исходник видео WEB-DL Amazon.

Сборка:
 
Не забывайте говорить Спасибо. Не уходите с раздачи!   
Торрент: Зарегистрирован [12 июн 2018, 10:26] Для скачивания .torrent
необходима регистрация
Или скачать с помощью
MediaGet
Статус:
Проверен
 
.torrent скачан: 249 раз
Хэш: 30b7c66db25373c9efb1b09b218b15a84fa80ad0
Размер: 6.96 ГБ (7 478 527 215 байт)
Стать Автором раздачи
 
 
Раздал: 100 ГБ
Скачал: 0 байт
Ратио: Seed.
Сообщения: 52913
Зарегистрирован: 31 мар 2015, 18:04


  • Похожие торренты
    Ответы
    Просмотры
    Последнее сообщение

Вернуться в Мультфильмы и мультсериалы

Ресурс не предоставляет электронные версии произведений, а занимается лишь коллекционированием и каталогизацией ссылок, присылаемых и публикуемых на форуме нашими читателями. Если вы являетесь правообладателем какого-либо представленного материала и не желаете чтобы ссылка на него находилась в нашем каталоге, свяжитесь с нами и мы незамедлительно удалим её. Файлы для обмена на трекере предоставлены пользователями сайта, и администрация не несёт ответственности за их содержание. Просьба не заливать файлы, защищенные авторскими правами, а также файлы нелегального содержания!
cron