Психоз / Psychosis (2010) BDRip 1080p | P

 
 Статистика раздачи 
Размер: 8.91 ГБ   |  Зарегистрирован: 11 июн 2018, 16:44   |   .torrent скачан: 0 раз
Сидеров: 1  [ 0 байт/сек ]     Личеров: 0  [ 0 байт/сек ]  
  

Психоз / Psychosis (2010) BDRip 1080p | P

Сообщение aLaVodka » 11 июн 2018, 16:44

Название: Психоз
Оригинальное название: Psychosis
Год выхода: 2010

Страна: Великобритания
Студия: Kingsway Films, Red Sparrow
Продолжительность: 01:27:11
Жанр: ужасы, триллер, криминал, детектив

Режиссер: Рег Тревисс
В ролях: Харизма Карпентер, Пол Скалфор, Риччи Харнетт, Ти Глейсер, Джастин Хоукинс, Ричард Рейнесфорд, Шон Чэпман, Бернард Кэй, Катрена Рохель, Даррен Брэнсфорд, ...

Перевод: профессиональный (многоголосый, закадровый) R5 от «West Video»

О фильме: Зимой 1992 года группа молодых анархистов не побоялась ехать через незнакомую местность и, бросив ей вызов, разбила здесь лагерь. В первую же ночь все они пали жертвами психопата.
15 лет спустя, известная писательница в жанре криминала Сьюзен, очень тонкая натура, вместе с мужем переезжает из ее родной Калифорнии на его родину Англию в поисках покоя. Свою идиллию они находят в уединенном загородном доме. Но дом хранит страшную тайну прошлого, и вскоре Сьюзен придется столкнуться со своим самым страшным кошмаром…


Кодек: x264
Качество: BDRip 1080p
Видео: 1920x1040, 14000 kbps, 25 fps
Аудио #1: AC-3, 6 ch, 640 kbps (Rus) - MVO R5 «West Video»
Субтитры: нет

За исходник спасибо - G00ba

x264 [info]: frame I:679 Avg QP:17.91 size:222140
x264 [info]: frame P:23896 Avg QP:20.05 size:102273
x264 [info]: frame B:106177 Avg QP:22.59 size: 61699
x264 [info]: consecutive B-frames: 0.9% 1.0% 4.0% 8.2% 7.2% 65.7% 5.5% 1.0% 3.6% 0.4% 0.7% 1.2% 0.5%

Общее
Уникальный идентификатор : 234249635281040976016108193745872190839 (0xB03AD6B55E2ECC348FDA2CA145E17D77)
Полное имя : Психоз (Psychosis) 2010 BDRip 1080p.mkv
Формат : Matroska
Версия формата : Version 2
Размер файла : 8,91 Гбайт
Продолжительность : 1 ч. 27 м.
Общий поток : 14,6 Мбит/сек
Дата кодирования : UTC 2018-06-10 12:56:48
Программа кодирования : mkvmerge v4.0.0 ('The Stars were mine') сборка от Jun 6 2010 16:18:42
Библиотека кодирования : libebml v1.0.0 + libmatroska v1.0.0

Видео
Идентификатор : 1
Формат : AVC
Формат/Информация : Advanced Video Codec
Профиль формата : High@L4.1
Параметр CABAC формата : Да
Параметр ReFrames формата : 4 кадра
Идентификатор кодека : V_MPEG4/ISO/AVC
Продолжительность : 1 ч. 27 м.
Битрейт : 14,0 Мбит/сек
Ширина : 1920 пикселей
Высота : 1040 пикселей
Соотношение сторон : 1,85:1
Режим частоты кадров : Постоянный
Частота кадров : 25,000 кадров/сек
Цветовое пространство : YUV
Субдискретизация насыщенности : 4:2:0
Битовая глубина : 8 бит
Тип развёртки : Прогрессивная
Бит/(Пиксели*Кадры) : 0.280
Размер потока : 8,34 Гбайт (94%)
Библиотека кодирования : x264 core 146 r2538 121396c
Настройки программы : cabac=1 / ref=4 / deblock=1:-3:-3 / analyse=0x3:0x133 / me=umh / subme=11 / psy=1 / psy_rd=1.00:0.00 / mixed_ref=1 / me_range=32 / chroma_me=1 / trellis=2 / 8x8dct=1 / cqm=0 / deadzone=21,11 / fast_pskip=0 / chroma_qp_offset=-2 / threads=12 / lookahead_threads=2 / sliced_threads=0 / nr=0 / decimate=0 / interlaced=0 / bluray_compat=0 / constrained_intra=0 / bframes=12 / b_pyramid=2 / b_adapt=2 / b_bias=0 / direct=3 / weightb=1 / open_gop=0 / weightp=2 / keyint=250 / keyint_min=25 / scenecut=40 / intra_refresh=0 / rc=2pass / mbtree=0 / bitrate=14000 / ratetol=1.0 / qcomp=0.60 / qpmin=0 / qpmax=69 / qpstep=4 / cplxblur=20.0 / qblur=0.5 / ip_ratio=1.40 / pb_ratio=1.30 / aq=1:0.80
Язык : English
Default : Нет
Forced : Нет

Аудио
Идентификатор : 2
Формат : AC-3
Формат/Информация : Audio Coding 3
Расширение режима : CM (complete main)
Параметр Endianness формата : Big
Идентификатор кодека : A_AC3
Продолжительность : 1 ч. 27 м.
Вид битрейта : Постоянный
Битрейт : 640 Кбит/сек
Каналы : 6 каналов
Расположение каналов : Front: L C R, Side: L R, LFE
Частота : 48,0 КГц
Частота кадров : 31,250 кадров/сек (1536 spf)
Метод сжатия : С потерями
Размер потока : 399 Мбайт (4%)
Заголовок : MVO R5 «West Video»
Язык : Russian
Default : Нет
Forced : Нет


 
Не забывайте говорить Спасибо. Не уходите с раздачи!   
Торрент: Зарегистрирован [11 июн 2018, 16:44] Для скачивания .torrent
необходима регистрация
Или скачать с помощью
MediaGet
Статус:
Проверен
 
.torrent скачан: 0 раз
Хэш: 68da6ad20fe6436f7f312c75abc7191d7939bd98
Размер: 8.91 ГБ (9 565 538 266 байт)
Стать Автором раздачи
 
 
Раздал: 100 ГБ
Скачал: 0 байт
Ратио: Seed.
Сообщения: 190613
Зарегистрирован: 09 апр 2015, 20:00


  • Похожие торренты
    Ответы
    Просмотры
    Последнее сообщение

Вернуться в Зарубежные фильмы 2006-2010 года

Ресурс не предоставляет электронные версии произведений, а занимается лишь коллекционированием и каталогизацией ссылок, присылаемых и публикуемых на форуме нашими читателями. Если вы являетесь правообладателем какого-либо представленного материала и не желаете чтобы ссылка на него находилась в нашем каталоге, свяжитесь с нами и мы незамедлительно удалим её. Файлы для обмена на трекере предоставлены пользователями сайта, и администрация не несёт ответственности за их содержание. Просьба не заливать файлы, защищенные авторскими правами, а также файлы нелегального содержания!
cron