Спас-на-Крови (Сергей Дудкин, Серегей Протасов) [2011, торжество Православия, SATRip]

 
 Статистика раздачи 
Размер: 529.17 МБ   |  Зарегистрирован: 10 июн 2018, 21:57   |   .torrent скачан: 0 раз
Сидеров: 1  [ 0 байт/сек ]     Личеров: 0  [ 0 байт/сек ]  
  

Спас-на-Крови (Сергей Дудкин, Серегей Протасов) [2011, торжество Православия, SATRip]

Сообщение Nakazhu » 10 июн 2018, 21:57

Спас-на-Крови
Дата/Год выпуска: 2011
Страна
: Россия
Жанр: торжество Православия
Продолжительность: 00:48:03
Перевод: Не требуется
Русские субтитры: нет
Оригинальная аудиодорожка: русский
Режиссер: Сергей Дудкин, Серегей Протасов
Телеканал: RTG TV
Описание: В конце 19 века Российская империя, самая большая страна в мире, переживала наивысший расцвет, когда произошли трагические события, предрешившие ее гибель. Памятник этим событиям — величественный храм в центре бывшей императорской столицы — собор Вознесения Христова в Санкт-Петербурге. В народе он более известен под названием Спас-на-крови. Потому что построен на месте, где произошло убийство императора Александра Второго. Этот царь даровал свободу крепостным крестьянам, провел смелые либеральные реформы, но стал главной мишенью для революционеров-террористов. В новом фильме RTG TV - о невиданной в русской истории охоте на императора, а также о соборе Вознесения Христова, который представляет собой удивительное по богатству собрание искусства и мемориал царю Александру Второму.
качество: SATRip
формат: AVI
Видео: MPEG4, XviD, 704x528 (4:3), 25.000 fps, 1 401 Kbps (0.151 bit/pixel)
Аудио: MP3, 48.0 KHz, 2 ch, 128 Kbps, CBR
Код: Выделить всё
General
Complete name                            : C:\Users\User\Downloads\Спас-на-Крови.avi
Format                                   : AVI
Format/Info                              : Audio Video Interleave
File size                                : 529 MiB
Duration                                 : 48mn 3s
Overall bit rate                         : 1 539 Kbps
Writing application                      : VirtualDubMod 1.5.10.2 (build 2540/release)
Writing library                          : VirtualDubMod build 2540/release
Video
ID                                       : 0
Format                                   : MPEG-4 Visual
Format profile                           : Advanced Simple@L5
Format settings, BVOP                    : 1
Format settings, QPel                    : No
Format settings, GMC                     : No warppoints
Format settings, Matrix                  : Default (MPEG)
Codec ID                                 : XVID
Codec ID/Hint                            : XviD
Duration                                 : 48mn 3s
Bit rate                                 : 1 401 Kbps
Width                                    : 704 pixels
Height                                   : 528 pixels
Display aspect ratio                     : 4:3
Frame rate                               : 25.000 fps
Color space                              : YUV
Chroma subsampling                       : 4:2:0
Bit depth                                : 8 bits
Scan type                                : Progressive
Compression mode                         : Lossy
Bits/(Pixel*Frame)                       : 0.151
Stream size                              : 482 MiB (91%)
Writing library                          : XviD 1.2.1 (UTC 2008-12-04)
Audio
ID                                       : 1
Format                                   : MPEG Audio
Format version                           : Version 1
Format profile                           : Layer 3
Codec ID                                 : 55
Codec ID/Hint                            : MP3
Duration                                 : 48mn 3s
Bit rate mode                            : Constant
Bit rate                                 : 128 Kbps
Channel(s)                               : 2 channels
Sampling rate                            : 48.0 KHz
Compression mode                         : Lossy
Stream size                              : 44.0 MiB (8%)
Alignment                                : Aligned on interleaves
Interleave, duration                     : 40 ms (1.00 video frame)
Interleave, preload duration             : 504 ms
Writing library                          : LAME3.98r
Encoding settings                        : -m s -V 4 -q 2 -lowpass 17 -b 128
 
Не забывайте говорить Спасибо. Не уходите с раздачи!   
Торрент: Зарегистрирован [10 июн 2018, 21:57] Для скачивания .torrent
необходима регистрация
Или скачать с помощью
MediaGet
Статус:
Проверен
 
.torrent скачан: 0 раз
Хэш: 1507af9e0e54f4175a44ed5157730ada68f39efb
Размер: 529.17 МБ (554 870 784 байт)
Стать Автором раздачи
 
 
Раздал: 0 байт
Скачал: 0 байт
Ратио: Inf.
Сообщения: 471951
Зарегистрирован: 17 апр 2014, 13:57


  • Похожие торренты
    Ответы
    Просмотры
    Последнее сообщение

Вернуться в Вера и религия (видео)

Ресурс не предоставляет электронные версии произведений, а занимается лишь коллекционированием и каталогизацией ссылок, присылаемых и публикуемых на форуме нашими читателями. Если вы являетесь правообладателем какого-либо представленного материала и не желаете чтобы ссылка на него находилась в нашем каталоге, свяжитесь с нами и мы незамедлительно удалим её. Файлы для обмена на трекере предоставлены пользователями сайта, и администрация не несёт ответственности за их содержание. Просьба не заливать файлы, защищенные авторскими правами, а также файлы нелегального содержания!
cron