Я не искал иного пути... (А. Павлович) [2009, торжество Православия, DVDRip]

 
 Статистика раздачи 
Размер: 560.69 МБ   |  Зарегистрирован: 10 июн 2018, 21:41   |   .torrent скачан: 0 раз
Сидеров: 1  [ 0 байт/сек ]     Личеров: 0  [ 0 байт/сек ]  
  

Я не искал иного пути... (А. Павлович) [2009, торжество Православия, DVDRip]

Сообщение Nakazhu » 10 июн 2018, 21:41

Я не искал иного пути...
Дата/Год выпуска: 2009
Страна
: Россия
Жанр: торжество Православия
Продолжительность: 00:46:08
Перевод: Не требуется
Русские субтитры: нет
Оригинальная аудиодорожка: русский
Режиссер: А. Павлович
Описание: Этот фильм рассказывает о жизненном пути и служении одного из старейших и выдающихся иерархов Русской Православной Церкви Митрополита Санкт-Петербургского и Ладожского Владимира, постоянного члена Священного Синода.
"Всеблагим промыслом Божиим было предопределено поставить на высоту архипастырского служения человека, с детских лет воспитанного в духе православного благочестия. Верность Православию, воспринятая будущим Митрополитом в семье священнослужителя, где он родился, определила всю его последующую судьбу, неразрывно связанную с Церковью", - так говорил о Владыке Владимире Святейший Патриарх Московский и всея Руси Алексий II.
качество: DVDRip
формат: AVI
Видео: MPEG4, XviD, 720x544 (4:3), 25.000 fps, 1 562 Kbps (0.159 bit/pixel)
Аудио: MP3, 48.0 KHz, 2 ch, 128 Kbps, CBR
Код: Выделить всё
General
Complete name                            : C:\Users\User\Downloads\Я не искал иного пути... .avi
Format                                   : AVI
Format/Info                              : Audio Video Interleave
File size                                : 561 MiB
Duration                                 : 46mn 8s
Overall bit rate                         : 1 699 Kbps
Video
ID                                       : 0
Format                                   : MPEG-4 Visual
Format profile                           : Advanced Simple@L5
Format settings, BVOP                    : 2
Format settings, QPel                    : No
Format settings, GMC                     : No warppoints
Format settings, Matrix                  : Default (H.263)
Codec ID                                 : XVID
Codec ID/Hint                            : XviD
Duration                                 : 46mn 8s
Bit rate                                 : 1 561 Kbps
Width                                    : 720 pixels
Height                                   : 544 pixels
Display aspect ratio                     : 4:3
Frame rate                               : 25.000 fps
Color space                              : YUV
Chroma subsampling                       : 4:2:0
Bit depth                                : 8 bits
Scan type                                : Progressive
Compression mode                         : Lossy
Bits/(Pixel*Frame)                       : 0.159
Stream size                              : 515 MiB (92%)
Writing library                          : XviD 1.2.1 (UTC 2008-12-04)
Audio
ID                                       : 1
Format                                   : MPEG Audio
Format version                           : Version 1
Format profile                           : Layer 3
Mode                                     : Joint stereo
Mode extension                           : MS Stereo
Codec ID                                 : 55
Codec ID/Hint                            : MP3
Duration                                 : 46mn 8s
Bit rate mode                            : Constant
Bit rate                                 : 128 Kbps
Channel(s)                               : 2 channels
Sampling rate                            : 48.0 KHz
Compression mode                         : Lossy
Stream size                              : 42.2 MiB (8%)
Alignment                                : Aligned on interleaves
Interleave, duration                     : 40 ms (1.00 video frame)
Interleave, preload duration             : 504 ms
 
Не забывайте говорить Спасибо. Не уходите с раздачи!   
Торрент: Зарегистрирован [10 июн 2018, 21:41] Для скачивания .torrent
необходима регистрация
Или скачать с помощью
MediaGet
Статус:
Проверен
 
.torrent скачан: 0 раз
Хэш: b67e23e6f6123840229267c254a5c54ca01c1fc0
Размер: 560.69 МБ (587 922 958 байт)
Стать Автором раздачи
 
 
Раздал: 0 байт
Скачал: 0 байт
Ратио: Inf.
Сообщения: 474226
Зарегистрирован: 17 апр 2014, 13:57


  • Похожие торренты
    Ответы
    Просмотры
    Последнее сообщение

Вернуться в Вера и религия (видео)

Ресурс не предоставляет электронные версии произведений, а занимается лишь коллекционированием и каталогизацией ссылок, присылаемых и публикуемых на форуме нашими читателями. Если вы являетесь правообладателем какого-либо представленного материала и не желаете чтобы ссылка на него находилась в нашем каталоге, свяжитесь с нами и мы незамедлительно удалим её. Файлы для обмена на трекере предоставлены пользователями сайта, и администрация не несёт ответственности за их содержание. Просьба не заливать файлы, защищенные авторскими правами, а также файлы нелегального содержания!
cron