Гроза (Зураб Нанобашвили) [2017, драма, WEB-DLRip] Тюменский драматический театр

 
 Статистика раздачи 
Размер: 1.45 ГБ   |  Зарегистрирован: 10 июн 2018, 21:12   |   .torrent скачан: 0 раз
Сидеров: 1  [ 0 байт/сек ]     Личеров: 0  [ 0 байт/сек ]  
  

Гроза (Зураб Нанобашвили) [2017, драма, WEB-DLRip] Тюменский драматический театр

Сообщение Nakazhu » 10 июн 2018, 21:12

Гроза
Название театра: Тюменский драматический театр.
Год выпуска: 2017.
Жанр: драма.
Продолжительность: 01:52:37.
Режиссер: Зураб Нанобашвили.
Действующие лица и исполнители:
Савел Прокофьевич Дикой, купец - народный артист России Владимир Орел,
Борис Григорьевич, его племянник - Николай Аузин, Дмитрий Куклев,
Марфа Игнатьевна Кабанова (Кабаниха), купчиха, вдова - Кристина Тихонова,
Тихон Иваныч Кабанов, ее сын - Егор Медведев,
Катерина, его жена - Наталья Никулина, Эвилина Ризепова,
Варвара, сестра Тихона - Диана Быстрицкая, Екатерина Подлесная,
Кулигин, мещанин, часовщик-самоучка - Александр Тихонов,
Ваня Кудряш, конторщик Дикого - Александр Кудрин,
Шапкин, мещанин - Сергей Скобелев,
Феклуша, странница - Жанна Сырникова,
Глаша, девка в доме Кабановой - Елена Цыбульская,
Барыня, полусумасшедшая - заслуженная артистка России Татьяна Пестова,
Священник - заслуженный артист Республики Грузия Владимир Обрезков.
Описание:
«Отчего люди не летают?! Я говорю, отчего люди не летают так, как птицы?» - этот монолог Катерины, главной героини пьесы Александра Островского «Гроза», на протяжении 150 лет никого не оставляет равнодушным. Молодая замужняя женщина, мечтающая о любви и настоящих чувствах, бросается с головой в новые отношения, наплевав на приличия и забыв об общественном мнении. Женщина мечтает о счастье и внутренней свободе, как и все люди на Земле. Но мечты оборачиваются трагедией. О чем наш спектакль? О вечном… О любви в разных ее проявлениях, о семье, доверии, предательстве. О слабости человека и мире его мечтаний, который разбивается о реальную жизнь. О выборе между грехом и раскаянием, между любовью и долгом, между свободой и унижением, между Жизнью и Смертью.
Дополнительная информация:
Страна: Россия .
Автор: Александр Островский.
Художник-постановщик: Алексей Паненков.
Художник по костюмам: Ольга Резниченко.
Музыкальное оформление: Дина Бортник.

О спектакле.
Релиз
Рип sharky.

Качество видео:...WEB-DLRip
Формат:.................AVI
Видео:..704x400 (1.76:1), 25 fps, DivX Codec 4.x ~1707 kbps avg, 0.24 bit/pixel
Аудио:..48 kHz, MPEG Layer 3, 2 ch, ~128.00 kbps avg
General
Complete name : Groza_Tyumenskij.BDT.2017.DivX.WEB-DLRip.fenixclub.avi
Format : AVI
Format/Info : Audio Video Interleave
File size : 1.45 GiB
Duration : 1h 52mn
Overall bit rate : 1 845 Kbps
Video
ID : 0
Format : MPEG-4 Visual
Format settings, BVOP : 1
Format settings, QPel : No
Format settings, GMC : No warppoints
Format settings, Matrix : Default (H.263)
Codec ID : DX50
Codec ID/Hint : DivX 5
Duration : 1h 52mn
Bit rate : 1 707 Kbps
Width : 704 pixels
Height : 400 pixels
Display aspect ratio : 16:9
Frame rate : 25.000 fps
Color space : YUV
Chroma subsampling : 4:2:0
Bit depth : 8 bits
Scan type : Progressive
Compression mode : Lossy
Bits/(Pixel*Frame) : 0.243
Stream size : 1.34 GiB (93%)
Title : Video
Writing library : DivX 3013
Audio
ID : 1
Format : MPEG Audio
Format version : Version 1
Format profile : Layer 3
Codec ID : 55
Codec ID/Hint : MP3
Duration : 1h 52mn
Bit rate mode : Constant
Bit rate : 128 Kbps
Channel(s) : 2 channels
Sampling rate : 48.0 KHz
Compression mode : Lossy
Stream size : 103 MiB (7%)
Alignment : Split accross interleaves
Interleave, duration : 40 ms (1.00 video frame)
Interleave, preload duratio : 500 ms
Title : Audio

 
Не забывайте говорить Спасибо. Не уходите с раздачи!   
Торрент: Зарегистрирован [10 июн 2018, 21:12] Для скачивания .torrent
необходима регистрация
Или скачать с помощью
MediaGet
Статус:
Проверен
 
.torrent скачан: 0 раз
Хэш: 243716c604590ae9dc579bcfc19523002b3b78df
Размер: 1.45 ГБ (1 558 348 824 байт)
Стать Автором раздачи
 
 
Раздал: 0 байт
Скачал: 0 байт
Ратио: Inf.
Сообщения: 471951
Зарегистрирован: 17 апр 2014, 13:57


  • Похожие торренты
    Ответы
    Просмотры
    Последнее сообщение

Вернуться в Театр

Ресурс не предоставляет электронные версии произведений, а занимается лишь коллекционированием и каталогизацией ссылок, присылаемых и публикуемых на форуме нашими читателями. Если вы являетесь правообладателем какого-либо представленного материала и не желаете чтобы ссылка на него находилась в нашем каталоге, свяжитесь с нами и мы незамедлительно удалим её. Файлы для обмена на трекере предоставлены пользователями сайта, и администрация не несёт ответственности за их содержание. Просьба не заливать файлы, защищенные авторскими правами, а также файлы нелегального содержания!
cron