Блаженны чистые сердцем (В. Малягин) [1998, торжество Православия, VHSRip]

 
 Статистика раздачи 
Размер: 549.99 МБ   |  Зарегистрирован: 10 июн 2018, 21:10   |   .torrent скачан: 0 раз
Сидеров: 1  [ 0 байт/сек ]     Личеров: 0  [ 0 байт/сек ]  
  

Блаженны чистые сердцем (В. Малягин) [1998, торжество Православия, VHSRip]

Сообщение Nakazhu » 10 июн 2018, 21:10

Блаженны чистые сердцем
Дата/Год выпуска: 1998
Страна
: Россия
Жанр: торжество Православия
Продолжительность: 00:28:11
Перевод: Не требуется
Русские субтитры: нет
Оригинальная аудиодорожка: нет
Режиссер: В. Малягин
Описание: Первый документальный фильм о святой Матроне Московской. Исторические кадры обретения мощей святой угодницы Божией на Даниловском кладбище г. Москвы 8 марта 1998 г. Рассказы очевидцев подвижнической жизни и первых чудес святой Матронушки.
качество: VHSRip
формат: AVI
Видео: MPEG4, XviD, 720x576 (5:4), 25.000 fps, 2 495 Kbps (0.241 bit/pixel)
Аудио: MP3, 44.1 KHz, 2 ch, 224 Kbps, CBR
Код: Выделить всё
General
Complete name                            : C:\Users\User\Downloads\Блаженны чистые сердцем.avi
Format                                   : AVI
Format/Info                              : Audio Video Interleave
File size                                : 550 MiB
Duration                                 : 28mn 11s
Overall bit rate                         : 2 728 Kbps
Writing library                          : Boilsoft Joiner build 2411/release
Video
ID                                       : 0
Format                                   : MPEG-4 Visual
Format profile                           : Advanced Simple@L5
Format settings, BVOP                    : 2
Format settings, QPel                    : No
Format settings, GMC                     : No warppoints
Format settings, Matrix                  : Default (H.263)
Codec ID                                 : XVID
Codec ID/Hint                            : XviD
Duration                                 : 28mn 11s
Bit rate                                 : 2 495 Kbps
Width                                    : 720 pixels
Height                                   : 576 pixels
Display aspect ratio                     : 5:4
Frame rate                               : 25.000 fps
Standard                                 : PAL
Color space                              : YUV
Chroma subsampling                       : 4:2:0
Bit depth                                : 8 bits
Scan type                                : Progressive
Compression mode                         : Lossy
Bits/(Pixel*Frame)                       : 0.241
Stream size                              : 503 MiB (91%)
Writing library                          : XviD 1.1.2 (UTC 2006-11-01)
Audio
ID                                       : 1
Format                                   : MPEG Audio
Format version                           : Version 1
Format profile                           : Layer 3
Mode                                     : Joint stereo
Codec ID                                 : 55
Codec ID/Hint                            : MP3
Duration                                 : 28mn 11s
Bit rate mode                            : Constant
Bit rate                                 : 224 Kbps
Channel(s)                               : 2 channels
Sampling rate                            : 44.1 KHz
Compression mode                         : Lossy
Stream size                              : 45.2 MiB (8%)
Alignment                                : Split accross interleaves
Interleave, duration                     : 40 ms (1.00 video frame)
Interleave, preload duration             : 500 ms
 
Не забывайте говорить Спасибо. Не уходите с раздачи!   
Торрент: Зарегистрирован [10 июн 2018, 21:10] Для скачивания .torrent
необходима регистрация
Или скачать с помощью
MediaGet
Статус:
Проверен
 
.torrent скачан: 0 раз
Хэш: 304c1d8471da2e51b6b0a5f4e31bb5e45b88843c
Размер: 549.99 МБ (576 702 464 байт)
Стать Автором раздачи
 
 
Раздал: 0 байт
Скачал: 0 байт
Ратио: Inf.
Сообщения: 487468
Зарегистрирован: 17 апр 2014, 13:57


  • Похожие торренты
    Ответы
    Просмотры
    Последнее сообщение

Вернуться в Вера и религия (видео)

Ресурс не предоставляет электронные версии произведений, а занимается лишь коллекционированием и каталогизацией ссылок, присылаемых и публикуемых на форуме нашими читателями. Если вы являетесь правообладателем какого-либо представленного материала и не желаете чтобы ссылка на него находилась в нашем каталоге, свяжитесь с нами и мы незамедлительно удалим её. Файлы для обмена на трекере предоставлены пользователями сайта, и администрация не несёт ответственности за их содержание. Просьба не заливать файлы, защищенные авторскими правами, а также файлы нелегального содержания!
cron