Чувства / Feel (Мэтт Мэхурин / Matt Mahurin) [2006, США, драма, DVDRip] DVO + Original Eng

 
 Статистика раздачи 
Размер: 1.46 ГБ   |  Зарегистрирован: 10 июн 2018, 18:20   |   .torrent скачан: 0 раз
Сидеров: 1  [ 0 байт/сек ]     Личеров: 0  [ 0 байт/сек ]  
  

Чувства / Feel (Мэтт Мэхурин / Matt Mahurin) [2006, США, драма, DVDRip] DVO + Original Eng

Сообщение Nakazhu » 10 июн 2018, 18:20

Чувства / Feel
Страна: США
Жанр: драма
Год выпуска: 2006
Продолжительность: 01:27:27
Перевод: Профессиональный (двухголосый закадровый)
Субтитры: нет
Оригинальная аудиодорожка: английский
Режиссер: Мэтт Мэхурин / Matt Mahurin
В ролях: Уильям Болдуин, Елена Белофф, Том Бауэр, Грант Чанг, Кевин Корригэн, Клейн Кроуфорд, Энн Харада, Сеико Хигума, Майк Джексон, Лорен КарлОписание: В массажный салон приходят четверо мужчин, чтобы расслабиться и немного отвлечься от повседневных забот. Один из них — успешный женатый бизнесмен — постоянный клиент салона, который посещает одну и ту же массажистку. Другие — пожилой вдовец, молодой тренер, продавец ковров — впервые в салоне.
Попав сюда, они оставляют за дверью все свои проблемы, которых хватает у каждого: один никак не может забыть недавно умершую жену, другого постоянно держит на контроле мамочка, а третьего достает невеста. Каждый мужчина индивидуален, у каждого свой характер и свои привычки, но все они пришли сюда с одинаковой целью — удовлетворить свои естественные желания. А исполнительницы желаний не просто массажистки, у каждой из девушек своя мечта.Качество видео: DVDRip
Формат видео: AVI
Видео: XviD, 704x384 (1,85:1), 25 fps, 1602 kbps
Аудио 1: AC3 Dolby Digital, 48 kHz, 6 ch, 384 kbps (Rus)
Аудио 2: AC3 Dolby Digital, 48 kHz, 6 ch, 384 kbps (Eng)
#7
Код: Выделить всё
Общее
Полное имя                               : Feel 2006.avi
Формат                                   : AVI
Формат/Информация                        : Audio Video Interleave
Размер файла                             : 1,46 Гбайт
Продолжительность                        : 1 ч. 27 м.
Общий поток                              : 2384 Кбит/сек
Программа кодирования                    : VirtualDubMod 1.5.10.2 (build 2542/release)
Библиотека кодирования                   : VirtualDubMod build 2542/release
Видео
Идентификатор                            : 0
Формат                                   : MPEG-4 Visual
Профиль формата                          : Advanced Simple@L5
Настройки формата                        : BVOP2 / Custom Matrix
Параметр BVOP формата                    : 2
Параметр QPel формата                    : Нет
Параметр GMC формата                     : Без точки перехода
Параметр матрицы формата                 : Выборочная
Идентификатор кодека                     : XVID
Идентификатор кодека/Подсказка           : XviD
Продолжительность                        : 1 ч. 27 м.
Битрейт                                  : 1602 Кбит/сек
Ширина                                   : 704 пикселя
Высота                                   : 384 пикселя
Соотношение сторон                       : 1,85:1
Частота кадров                           : 25,000 кадров/сек
Цветовое пространство                    : YUV
Субдискретизация насыщенности            : 4:2:0
Битовая глубина                          : 8 бит
Тип развёртки                            : Прогрессивная
Метод сжатия                             : С потерями
Бит/(Пиксели*Кадры)                      : 0.237
Размер потока                            : 1002 Мбайт (67%)
Библиотека кодирования                   : XviD 65
Аудио #1
Идентификатор                            : 1
Формат                                   : AC-3
Формат/Информация                        : Audio Coding 3
Идентификатор кодека                     : 2000
Продолжительность                        : 1 ч. 27 м.
Вид битрейта                             : Постоянный
Битрейт                                  : 384 Кбит/сек
Каналы                                   : 6 каналов
Расположение каналов                     : Front: L C R, Side: L R, LFE
Частота                                  : 48,0 КГц
Частота кадров                           : 31,250 кадров/сек (1536 SPF)
Битовая глубина                          : 16 бит
Метод сжатия                             : С потерями
Размер потока                            : 240 Мбайт (16%)
Выравнивание                             : Разделение по промежуткам
Продолжительность промежутка             : 40  мс. (1,00 видеокадр)
Время предзагрузки промежутка            : 500  мс.
ServiceKind/String                       : Complete Main
Аудио #2
Идентификатор                            : 2
Формат                                   : AC-3
Формат/Информация                        : Audio Coding 3
Идентификатор кодека                     : 2000
Продолжительность                        : 1 ч. 27 м.
Вид битрейта                             : Постоянный
Битрейт                                  : 384 Кбит/сек
Каналы                                   : 6 каналов
Расположение каналов                     : Front: L C R, Side: L R, LFE
Частота                                  : 48,0 КГц
Частота кадров                           : 31,250 кадров/сек (1536 SPF)
Битовая глубина                          : 16 бит
Метод сжатия                             : С потерями
Размер потока                            : 240 Мбайт (16%)
Выравнивание                             : Разделение по промежуткам
Продолжительность промежутка             : 40  мс. (1,00 видеокадр)
Время предзагрузки промежутка            : 500  мс.
ServiceKind/String                       : Complete Main


 
Не забывайте говорить Спасибо. Не уходите с раздачи!   
Торрент: Зарегистрирован [10 июн 2018, 18:20] Для скачивания .torrent
необходима регистрация
Или скачать с помощью
MediaGet
Статус:
Проверен
 
.torrent скачан: 0 раз
Хэш: a00c300d73b5e34dcc5bc3cdd9fbc966eb7fc998
Размер: 1.46 ГБ (1 563 824 128 байт)
Стать Автором раздачи
 
 
Раздал: 0 байт
Скачал: 0 байт
Ратио: Inf.
Сообщения: 487468
Зарегистрирован: 17 апр 2014, 13:57


  • Похожие торренты
    Ответы
    Просмотры
    Последнее сообщение

Вернуться в Зарубежные фильмы 2006-2010 года

Ресурс не предоставляет электронные версии произведений, а занимается лишь коллекционированием и каталогизацией ссылок, присылаемых и публикуемых на форуме нашими читателями. Если вы являетесь правообладателем какого-либо представленного материала и не желаете чтобы ссылка на него находилась в нашем каталоге, свяжитесь с нами и мы незамедлительно удалим её. Файлы для обмена на трекере предоставлены пользователями сайта, и администрация не несёт ответственности за их содержание. Просьба не заливать файлы, защищенные авторскими правами, а также файлы нелегального содержания!
cron