Два часа с бардами (Александр Стефанович) [1987, Документальный, музыкальный (авторская песня), DVDRip]

 
 Статистика раздачи 
Размер: 1.36 ГБ   |  Зарегистрирован: 10 июн 2018, 15:45   |   .torrent скачан: 0 раз
Сидеров: 1  [ 0 байт/сек ]     Личеров: 0  [ 0 байт/сек ]  
  

Два часа с бардами (Александр Стефанович) [1987, Документальный, музыкальный (авторская песня), DVDRip]

Сообщение Nakazhu » 10 июн 2018, 15:45

Два часа с бардами
Жанр: Документальный, музыкальный (авторская песня)
Страна: СССР
Студия: Мосфильм
Год выпуска: 1987
Продолжительность: 01:52:24
Режиссёр и автор сценария: Александр Стефанович
Исполнители песен:
Александр Галич, Булат Окуджава, Владимир Высоцкий, Юрий Визбор, Юлий Ким, Александр Городницкий, Александр Дольский, Олег Митяев, Александр Розенбаум , Андрей Макаревич, Леонид Сергеев, Владимир Капгер и другие
Описание: На протяжении многих десятилетий неизменным остается интерес миллионов людей к авторской песне. В этом фильме звучат голоса советских бардов разных поколений. Два часа зрители проведут с авторской песней. Два часа с бардами - великими и смешными, ироничными и наивными, печальными и веселыми; теми, кого уже нет, и теми, кто поет для нас и сейчас.
Комментируют фильм историк Натан Эйдельман и бард Александр Розенбаум.
Дополнительная информация: Релиз:
Автор рипа: pmv
Большое спасибо за:
- исходный материал для раздачи - некто Андрей
* Художественно-документальный телефильм об авторской песне известного режиссёра Александра Стефановича был снят и выпущен в прокат в 1987 году продолжительностью 118 мин. (1 час. 58 мин.). В 1988 фильм был выпущен в кинопрокат под названием «Барды» в сокращённом виде продолжительностью 81 мин. (01 час. 21 мин.) - https://www.kinopoisk.ru/film/bardy-1988-46031/.
Картина рассказывает о зарождении и развитии этого жанра и охватывает период отечественной истории 1952—1987 гг. Важнейшие события в жизни нашей страны демонстрируются параллельно с исполнением авторских песен, созданных в те годы. В фильме использованы многочисленные архивные материалы, представляющие собой документальные кадры исторической хроники и отрывки выступлений авторов и исполнителей, стоявших у истоков авторской песни: Ю.Визбора, Б.Окуджавы, А.Галича, В.Высоцкого, а также А.Дольского, Ю.Кима, А.Макаревича, Л.Сергеева и других. Выступления бардов перемежаются комментариями историка Натана Эйдельмана и автора-исполнителя Александра Розенбаума, песни которого также присутствуют в фильме. Свои комментарии дают также писатель Фазиль Искандер и автор фильма Александр Стефанович.
В фильме «Два часа с бардами» демонстрируются образы двух знаковых пространств - истории страны и истории авторской песни. Первые кадры — зрители собирающиеся на Грушинский фестиваль, подготовка сцены в форме огромной гитары, как бы плывущей по воде, настройка динамиков и микрофонов - идут на фоне песни Олега Митяева «Как здорово, что все мы здесь сегодня собрались». В финальном эпизоде, эпилоге, знаковым локусом становится Арбат эпохи перестройки, при этом пространство культуры расширяется как в прошлое, так и в будущее, и авторская песня вписывается в широкий культурно-исторический контекст… (информация взята из Википедии
)
IMDb = - (-) - https://www.imdb.com/title/tt0303716/ (Барды / Bardy, 1988)
Кинопоиск = 6.635 (54) - https://www.kinopoisk.ru/film/dva-chasa-s-bardami-1987-542226/
ПРОСЬБА к СКАЧАВШИМ. НЕ УХОДИТЕ С РАЗДАЧИ, ПОМОГИТЕ ДРУГИМ СКАЧАТЬ!!!
Качество: DVDRip
Формат: AVI
Видео: 720x544 (1.32:1), 25 fps, XviD build 73 ~1599 kbps avg, 0.16 bit/pixel
Аудио: 48 kHz, MPEG Layer 3, 2 ch, ~128.00 kbps avg
General
Complete name : D:\torrents\Два часа с бардами (1987).avi
Format : AVI
Format/Info : Audio Video Interleave
File size : 1.36 GiB
Duration : 1 h 52 min
Overall bit rate : 1 738 kb/s
Writing library : VirtualDub build 35491/release
Video
ID : 0
Format : MPEG-4 Visual
Format profile : Advanced Simple@L5
Format settings, BVOP : 2
Format settings, QPel : No
Format settings, GMC : No warppoints
Format settings, Matrix : Default (H.263)
Codec ID : XVID
Codec ID/Hint : XviD
Duration : 1 h 52 min
Bit rate : 1 600 kb/s
Width : 720 pixels
Height : 544 pixels
Display aspect ratio : 4:3
Frame rate : 25.000 FPS
Color space : YUV
Chroma subsampling : 4:2:0
Bit depth : 8 bits
Scan type : Progressive
Compression mode : Lossy
Bits/(Pixel*Frame) : 0.163
Stream size : 1.26 GiB (92%)
Writing library : XviD 73
Audio
ID : 1
Format : MPEG Audio
Format version : Version 1
Format profile : Layer 3
Mode : Joint stereo
Mode extension : MS Stereo
Codec ID : 55
Codec ID/Hint : MP3
Duration : 1 h 52 min
Bit rate mode : Constant
Bit rate : 128 kb/s
Channel(s) : 2 channels
Sampling rate : 48.0 kHz
Compression mode : Lossy
Delay relative to video : 150 ms
Stream size : 103 MiB (7%)
Alignment : Split accross interleaves
Interleave, duration : 40 ms (1.00 video frame)
Interleave, preload duration : 500 ms
МОИ РАЗДАЧИ НА РУТРЕКЕРЕ: http://rutracker.org/forum/tracker.php?rid=27390064
 
Не забывайте говорить Спасибо. Не уходите с раздачи!   
Торрент: Зарегистрирован [10 июн 2018, 15:45] Скачать торрент
Скачать торрент
[ Размер 14.11 КБ / Просмотров 1 ]
Статус:
Проверен
 
.torrent скачан: 0 раз
Хэш: 940292d69a6fb0fcb269f8b5e583a23a9ae1a52e
Размер: 1.36 ГБ (1 464 714 788 байт)
Стать Автором раздачи
 
 
Раздал: 0 байт
Скачал: 0 байт
Ратио: Inf.
Сообщения: 487468
Зарегистрирован: 17 апр 2014, 13:57


  • Похожие торренты
    Ответы
    Просмотры
    Последнее сообщение

Вернуться в Документальные фильмы и телепередачи

Ресурс не предоставляет электронные версии произведений, а занимается лишь коллекционированием и каталогизацией ссылок, присылаемых и публикуемых на форуме нашими читателями. Если вы являетесь правообладателем какого-либо представленного материала и не желаете чтобы ссылка на него находилась в нашем каталоге, свяжитесь с нами и мы незамедлительно удалим её. Файлы для обмена на трекере предоставлены пользователями сайта, и администрация не несёт ответственности за их содержание. Просьба не заливать файлы, защищенные авторскими правами, а также файлы нелегального содержания!
cron