Безмолвный свет / Stellet licht (2007) WEB-DL 1080p от KORSAR | P2

 
 Статистика раздачи 
Размер: 7.45 ГБ   |  Зарегистрирован: 10 июн 2018, 06:18   |   .torrent скачан: 0 раз
Сидеров: 1  [ 0 байт/сек ]     Личеров: 0  [ 0 байт/сек ]  
  

Безмолвный свет / Stellet licht (2007) WEB-DL 1080p от KORSAR | P2

Сообщение aLaVodka » 10 июн 2018, 06:18

Название: Безмолвный свет
Оригинальное название: Stellet licht
Год выпуска: 2007
Выпущено: Германия, Франция, Нидерланды, Мексика
Жанр: Драма
Режиссер: Карлос Рейгадас
В ролях: Элизабет Фер, Джакобо Классен, Мария Панкратц, Мириам Тоус, Корнелио Уолл, Питер Уолл

О фильме: Неторопливая картина о вере, поисках Бога и искушении перед мирскими соблазнами. Меннониты, в общине которых происходит действие фильма, поселились в северной Мексике в конце позапрошлого века, но поскольку их религия запрещает браки с иноверцами, им удалось сохранить этническую чистоту и абсолютную культурную обособленность. Герой картины образцовый муж и отец многодетной семьи, влюбляется в хозяйку кафе Марианну. На плечи набожного Йохана сваливается непосильный груз моральной дилеммы. Любовь к Марианне становится полем битвы божественного и дьявольского. Фильм удостоен премии жюри на Каннском МКФ в 2007, за 4 месяца после выпуска собрал 18 наград на разных кинофестивалях и продолжает свое парадное шествие. Теперь уже 28 наград. Настоятельно рекомендуется к просмотру, особенно любителям творчества А.А.Тарковского и Т.Драйера.

Продолжительность: 02:16:02
Перевод: Профессиональный двухголосый
Субтитры: Русские, английские (вшитые неотключаемые)
Навигация по главам: Есть

Файл
Качество: WEB-DL 1080p
Видео: MPEG-4 AVC, 7274 Кбит/сек, 1920x872, 24,000 кадра/сек
Аудио #1: AC3, 2 ch, 192 Кбит/сек | Русский, профессиональный (двухголосый закадровый)
Аудио #2: EAC3, 2 ch, 224 Кбит/сек | Голландский, оригинал




Общее
Уникальный идентификатор : 180513935594379626037521600236967127916 (0x87CDB82A3534B993AE899871E6E36B6C)
Полное имя : Безмолвный.свет.2007.WEB-DL.1080p.mkv
Формат : Matroska
Версия формата : Version 2
Размер файла : 7,45 Гбайт
Продолжительность : 2 ч. 16 м.
Режим общего битрейта : Переменный
Общий поток : 7846 Кбит/сек
Дата кодирования : UTC 2018-06-08 12:14:33
Программа кодирования : mkvmerge v5.8.0 ('No Sleep / Pillow') built on Sep 2 2012 15:37:04
Библиотека кодирования : libebml v1.2.3 + libmatroska v1.3.0

Видео
Идентификатор : 1
Формат : AVC
Формат/Информация : Advanced Video Codec
Профиль формата : High@L4
Настройки формата : CABAC / 4 Ref Frames
Параметр CABAC формата : Да
Параметр RefFrames формата : 4 кадра
Идентификатор кодека : V_MPEG4/ISO/AVC
Продолжительность : 2 ч. 16 м.
Вид битрейта : Переменный
Битрейт : 7274 Кбит/сек
Максимальный битрейт : 15,0 Мбит/сек
Ширина : 1920 пикселей
Высота : 872 пикселя
Соотношение сторон : 2,2:1
Соотношение сторон в оригинале : 2,2:1
Режим частоты кадров : Постоянный
Частота кадров : 24,000 кадра/сек
Цветовое пространство : YUV
Субдискретизация насыщенности : 4:2:0
Битовая глубина : 8 бит
Тип развёртки : Прогрессивная
Бит/(Пиксели*Кадры) : 0.181
Размер потока : 6,91 Гбайт (93%)
Язык : Dutch
Default : Да
Forced : Нет
Цветовой диапазон : Limited
Основные цвета : BT.709
Характеристики трансфера : BT.709
Коэффициенты матрицы : BT.709

Аудио #1
Идентификатор : 2
Формат : AC-3
Формат/Информация : Audio Coding 3
Идентификатор кодека : A_AC3
Продолжительность : 2 ч. 16 м.
Вид битрейта : Постоянный
Битрейт : 192 Кбит/сек
Каналы : 2 канала
Расположение каналов : Front: L R
Частота : 48,0 КГц
Частота кадров : 31,250 кадров/сек (1536 SPF)
Битовая глубина : 16 бит
Метод сжатия : С потерями
Размер потока : 187 Мбайт (2%)
Заголовок : DVO
Язык : Russian
По умолчанию : Да
Принудительно : Нет

Аудио #2
Идентификатор : 3
Формат : E-AC-3
Формат/Информация : Enhanced Audio Coding 3
Идентификатор кодека : A_EAC3
Продолжительность : 2 ч. 16 м.
Вид битрейта : Постоянный
Битрейт : 224 Кбит/сек
Каналы : 2 канала
Расположение каналов : Front: L R
Частота : 48,0 КГц
Частота кадров : 187,500 кадров/сек (256 SPF)
Метод сжатия : С потерями
Размер потока : 218 Мбайт (3%)
Заголовок : Original
Язык : Dutch
По умолчанию : Нет
Принудительно : Нет

Текст
Идентификатор : 4
Формат : UTF-8
Идентификатор кодека : S_TEXT/UTF8
Идентификатор кодека/Информация : UTF-8 Plain Text
Язык : Russian
По умолчанию : Нет
Принудительно : Нет

Меню
00:00:00.000 : en:Chapter 01
00:15:17.038 : en:Chapter 02
00:27:39.080 : en:Chapter 03
00:40:28.330 : en:Chapter 04
00:49:20.621 : en:Chapter 05
01:00:38.205 : en:Chapter 06
01:12:41.038 : en:Chapter 07
01:21:17.788 : en:Chapter 08
01:30:55.913 : en:Chapter 09
01:38:11.288 : en:Chapter 10
01:46:14.330 : en:Chapter 11
01:57:09.038 : en:Chapter 12

• Исходник видео WEB-DL Amazon.

Сборка:
 
Не забывайте говорить Спасибо. Не уходите с раздачи!   
Торрент: Зарегистрирован [10 июн 2018, 06:18] Для скачивания .torrent
необходима регистрация
Или скачать с помощью
MediaGet
Статус:
Проверен
 
.torrent скачан: 0 раз
Хэш: 4f5c228af4765bae997c2e0af9bf6de90383ad6b
Размер: 7.45 ГБ (8 004 521 340 байт)
Стать Автором раздачи
 
 
Раздал: 100 ГБ
Скачал: 0 байт
Ратио: Seed.
Сообщения: 190553
Зарегистрирован: 09 апр 2015, 20:00


  • Похожие торренты
    Ответы
    Просмотры
    Последнее сообщение

Вернуться в Зарубежные фильмы 2006-2010 года

Ресурс не предоставляет электронные версии произведений, а занимается лишь коллекционированием и каталогизацией ссылок, присылаемых и публикуемых на форуме нашими читателями. Если вы являетесь правообладателем какого-либо представленного материала и не желаете чтобы ссылка на него находилась в нашем каталоге, свяжитесь с нами и мы незамедлительно удалим её. Файлы для обмена на трекере предоставлены пользователями сайта, и администрация не несёт ответственности за их содержание. Просьба не заливать файлы, защищенные авторскими правами, а также файлы нелегального содержания!
cron