Русский крест (Елена Козенкова) [2007, Православно-познавательный, DVD5]

 
 Статистика раздачи 
Размер: 2.91 ГБ   |  Зарегистрирован: 09 июн 2018, 20:07   |   .torrent скачан: 0 раз
Сидеров: 1  [ 0 байт/сек ]     Личеров: 0  [ 0 байт/сек ]  
  

Русский крест (Елена Козенкова) [2007, Православно-познавательный, DVD5]

Сообщение Nakazhu » 09 июн 2018, 20:07

Русский крест
Год выпуска: 2007
Страна: Россия
Жанр: Православно-познавательный
Продолжительность: 01:14:16
Перевод: Не требуется
Русские субтитры: нет
Оригинальная аудиодорожка: русский
Режиссер: Е. Козенкова
Описание: Православный взгляд на аборты. Сегодня русский народ - вымирающая нация. В России смертность превышает рождаемость: каждый год нас на миллион становится меньше. А по числу абортов Россия вышла на первое место в мире...
Смотрите:
- Эпоха нерожденных душ: аборты и фетальная терапия;
- Российская ассоциация планирования семьи: истинные цели и задачи этой организации;
- Отцом и матерью быть... не рекомендовано: уроки так называемого полового просвещения в школах;
- Крушение семейных ценностей;
- Что происходит в российской медицине: или рассказ о детях, приговоренных врачами к смерти еще в утробе матери.
Сэмпл: https://cloud.mail.ru/public/Lp5W/wuGxZUamt
Качество: DVD5
Формат: DVD Video
Видео: 5061 Кбит/сек, PAL 720*576 (4:3), 25,000 кадров/сек, MPEG2
Аудио: Русский, 192 Кбит/сек, 48,0 КГц, 16 бит, 2 канала, AC-3
Код: Выделить всё
Title: Русский крест
Size: 2.91 Gb ( 3 050 678 KBytes ) - DVD-5
Enabled regions: 1, 2, 3, 4, 5, 6, 7, 8
VTS_01 :
  Play Length: 01:14:16
  Video: PAL 4:3 (720x576) VBR
  Audio:
      Russian (Dolby AC3, 2 ch)
VTS_02 :
  Play Length: 00:00:09
  Video: PAL 4:3 (720x576) VBR
  Audio:
      Not specified (Dolby AC3, 2 ch)
Menu Video:
      PAL 4:3 (720x576) VBR
Menu Subtitles:
      Not specified
Menu English Language Unit :
      Root Menu
Код: Выделить всё
Общее
Полное имя                               : O:\MONAR\Документальные фильмы\Познавательные фильмы\Русский крест\VIDEO_TS\VIDEO_TS.BUP
Формат                                   : DVD Video
Профиль формата                          : Menu
Размер файла                             : 12,0 Кбайт
Режим общего битрейта                    : Переменный
FileExtension_Invalid                    : ifo
Видео
Идентификатор                            : 224 (0xE0)
Формат                                   : MPEG Video
Версия формата                           : Version 2
Вид битрейта                             : Переменный
Ширина                                   : 720 пикселей
Высота                                   : 576 пикселей
Соотношение сторон                       : 4:3
Частота кадров                           : 25,000 кадров/сек
Стандарт вещания                         : PAL
Метод сжатия                             : С потерями
Текст
Формат                                   : RLE
Формат/Информация                        : Run-length encoding
Битовая глубина                          : 2 бит
Общее
Полное имя                               : O:\MONAR\Документальные фильмы\Познавательные фильмы\Русский крест\VIDEO_TS\VIDEO_TS.IFO
Формат                                   : DVD Video
Профиль формата                          : Menu
Размер файла                             : 12,0 Кбайт
Режим общего битрейта                    : Переменный
Видео
Идентификатор                            : 224 (0xE0)
Формат                                   : MPEG Video
Версия формата                           : Version 2
Вид битрейта                             : Переменный
Ширина                                   : 720 пикселей
Высота                                   : 576 пикселей
Соотношение сторон                       : 4:3
Частота кадров                           : 25,000 кадров/сек
Стандарт вещания                         : PAL
Метод сжатия                             : С потерями
Текст
Формат                                   : RLE
Формат/Информация                        : Run-length encoding
Битовая глубина                          : 2 бит
Общее
Полное имя                               : O:\MONAR\Документальные фильмы\Познавательные фильмы\Русский крест\VIDEO_TS\VIDEO_TS.VOB
Формат                                   : MPEG-PS
Размер файла                             : 10,0 Кбайт
Продолжительность                        : 40 мс.
Режим общего битрейта                    : Постоянный
Общий поток                              : 2048 Кбит/сек
Видео
Идентификатор                            : 224 (0xE0)
Формат                                   : MPEG Video
Версия формата                           : Version 2
Профиль формата                          : Main@Main
Настройки формата                        : CustomMatrix
Параметр BVOP формата                    : Нет
Параметр матрицы формата                 : Выборочная
Продолжительность                        : 40 мс.
Вид битрейта                             : Постоянный
Максимальный битрейт                     : 9000 Кбит/сек
Ширина                                   : 720 пикселей
Высота                                   : 576 пикселей
Соотношение сторон                       : 4:3
Частота кадров                           : 25,000 кадров/сек
Стандарт вещания                         : PAL
Цветовое пространство                    : YUV
Субдискретизация насыщенности            : 4:2:0
Битовая глубина                          : 8 бит
Тип развёртки                            : Прогрессивная
Порядок развёртки                        : Верхнее поле первое
Метод сжатия                             : С потерями
Временной код первого кадра              : 00:00:00:00
Оригинал временного кода                 : Group of pictures header
Основные цвета                           : BT.601 NTSC
Характеристики трансфера                 : BT.601
Коэффициенты матрицы                     : BT.601
Меню
Общее
Полное имя                               : O:\MONAR\Документальные фильмы\Познавательные фильмы\Русский крест\VIDEO_TS\VTS_01_0.BUP
Формат                                   : DVD Video
Профиль формата                          : Program
Размер файла                             : 50,0 Кбайт
Продолжительность                        : 1 ч. 14 м.
Режим общего битрейта                    : Переменный
Общий поток                              : 92 бит/сек
FileExtension_Invalid                    : ifo
Видео
Идентификатор                            : 224 (0xE0)
Формат                                   : MPEG Video
Версия формата                           : Version 2
Продолжительность                        : 1 ч. 14 м.
Вид битрейта                             : Переменный
Ширина                                   : 720 пикселей
Высота                                   : 576 пикселей
Соотношение сторон                       : 4:3
Частота кадров                           : 25,000 кадров/сек
Стандарт вещания                         : PAL
Метод сжатия                             : С потерями
Аудио
Идентификатор                            : 128 (0x80)
Формат                                   : AC-3
Формат/Информация                        : Audio Coding 3
Продолжительность                        : 1 ч. 14 м.
Каналы                                   : 2 канала
Частота                                  : 48,0 КГц
Метод сжатия                             : С потерями
Язык                                     : Russian
Меню
Продолжительность                        : 1 ч. 14 м.
00:00:00.000                             : Chapter 1
00:01:47.600                             : Chapter 2
00:18:41.760                             : Chapter 3
00:39:02.320                             : Chapter 4
00:59:09.040                             : Chapter 5
01:08:45.840                             : Chapter 6
List (Audio)                             : 0
Общее
Полное имя                               : O:\MONAR\Документальные фильмы\Познавательные фильмы\Русский крест\VIDEO_TS\VTS_01_0.IFO
Формат                                   : DVD Video
Профиль формата                          : Program
Размер файла                             : 50,0 Кбайт
Продолжительность                        : 1 ч. 14 м.
Режим общего битрейта                    : Переменный
Общий поток                              : 92 бит/сек
Видео
Идентификатор                            : 224 (0xE0)
Формат                                   : MPEG Video
Версия формата                           : Version 2
Продолжительность                        : 1 ч. 14 м.
Вид битрейта                             : Переменный
Ширина                                   : 720 пикселей
Высота                                   : 576 пикселей
Соотношение сторон                       : 4:3
Частота кадров                           : 25,000 кадров/сек
Стандарт вещания                         : PAL
Метод сжатия                             : С потерями
Аудио
Идентификатор                            : 128 (0x80)
Формат                                   : AC-3
Формат/Информация                        : Audio Coding 3
Продолжительность                        : 1 ч. 14 м.
Каналы                                   : 2 канала
Частота                                  : 48,0 КГц
Метод сжатия                             : С потерями
Язык                                     : Russian
Меню
Продолжительность                        : 1 ч. 14 м.
00:00:00.000                             : Chapter 1
00:01:47.600                             : Chapter 2
00:18:41.760                             : Chapter 3
00:39:02.320                             : Chapter 4
00:59:09.040                             : Chapter 5
01:08:45.840                             : Chapter 6
List (Audio)                             : 0
Общее
Полное имя                               : O:\MONAR\Документальные фильмы\Познавательные фильмы\Русский крест\VIDEO_TS\VTS_01_0.VOB
Формат                                   : MPEG-PS
Размер файла                             : 98,0 Кбайт
Продолжительность                        : 84 мс.
Общий поток                              : 9557 Кбит/сек
Видео
Идентификатор                            : 224 (0xE0)
Формат                                   : MPEG Video
Версия формата                           : Version 2
Профиль формата                          : Main@Main
Настройки формата                        : CustomMatrix
Параметр BVOP формата                    : Нет
Параметр матрицы формата                 : Выборочная
Продолжительность                        : 84 мс.
Вид битрейта                             : Постоянный
Максимальный битрейт                     : 9000 Кбит/сек
Ширина                                   : 720 пикселей
Высота                                   : 576 пикселей
Соотношение сторон                       : 4:3
Частота кадров                           : 25,000 кадров/сек
Стандарт вещания                         : PAL
Цветовое пространство                    : YUV
Субдискретизация насыщенности            : 4:2:0
Битовая глубина                          : 8 бит
Тип развёртки                            : Прогрессивная
Порядок развёртки                        : Верхнее поле первое
Метод сжатия                             : С потерями
Основные цвета                           : BT.601 NTSC
Характеристики трансфера                 : BT.601
Коэффициенты матрицы                     : BT.601
Текст
Идентификатор                            : 189 (0xBD)-32 (0x20)
Формат                                   : RLE
Формат/Информация                        : Run-length encoding
Режим смешивания                         : DVD-Video
Задержка видео                           : 44 мс.
Меню
Общее
Полное имя                               : O:\MONAR\Документальные фильмы\Познавательные фильмы\Русский крест\VIDEO_TS\VTS_01_1.VOB
Формат                                   : MPEG-PS
Размер файла                             : 1024 Мбайт
Продолжительность                        : 26 м. 42 с.
Режим общего битрейта                    : Переменный
Общий поток                              : 5359 Кбит/сек
Видео
Идентификатор                            : 224 (0xE0)
Формат                                   : MPEG Video
Версия формата                           : Version 2
Профиль формата                          : Main@Main
Настройки формата                        : CustomMatrix / BVOP
Параметр BVOP формата                    : Да
Параметр матрицы формата                 : Выборочная
Параметр GOP формата                     : M=3, N=15
Структура изображения                    : Frame
Продолжительность                        : 26 м. 42 с.
Вид битрейта                             : Переменный
Битрейт                                  : 5061 Кбит/сек
Максимальный битрейт                     : 6000 Кбит/сек
Ширина                                   : 720 пикселей
Высота                                   : 576 пикселей
Соотношение сторон                       : 4:3
Частота кадров                           : 25,000 кадров/сек
Стандарт вещания                         : PAL
Цветовое пространство                    : YUV
Субдискретизация насыщенности            : 4:2:0
Битовая глубина                          : 8 бит
Тип развёртки                            : Чересстрочная
Порядок развёртки                        : Нижнее поле первое
Метод сжатия                             : С потерями
Бит/(Пиксели*Кадры)                      : 0.488
Временной код первого кадра              : 00:00:00:00
Оригинал временного кода                 : Group of pictures header
GOP, открыто/закрыто                     : Открыто
GOP, открыто/закрыто на первом кадре     : Закрыто
Размер потока                            : 967 Мбайт (94%)
Аудио
Идентификатор                            : 189 (0xBD)-128 (0x80)
Формат                                   : AC-3
Формат/Информация                        : Audio Coding 3
Режим смешивания                         : DVD-Video
Продолжительность                        : 26 м. 42 с.
Вид битрейта                             : Постоянный
Битрейт                                  : 192 Кбит/сек
Каналы                                   : 2 канала
Расположение каналов                     : Front: L R
Частота                                  : 48,0 КГц
Частота кадров                           : 31,250 кадров/сек (1536 SPF)
Битовая глубина                          : 16 бит
Метод сжатия                             : С потерями
Размер потока                            : 36,7 Мбайт (4%)
ServiceKind/String                       : Complete Main
Меню
Общее
Полное имя                               : O:\MONAR\Документальные фильмы\Познавательные фильмы\Русский крест\VIDEO_TS\VTS_01_2.VOB
Формат                                   : MPEG-PS
Размер файла                             : 1024 Мбайт
Продолжительность                        : 25 м. 15 с.
Режим общего битрейта                    : Переменный
Общий поток                              : 5668 Кбит/сек
Видео
Идентификатор                            : 224 (0xE0)
Формат                                   : MPEG Video
Версия формата                           : Version 2
Профиль формата                          : Main@Main
Настройки формата                        : CustomMatrix / BVOP
Параметр BVOP формата                    : Да
Параметр матрицы формата                 : Выборочная
Параметр GOP формата                     : M=3, N=15
Структура изображения                    : Frame
Продолжительность                        : 25 м. 15 с.
Вид битрейта                             : Переменный
Битрейт                                  : 5363 Кбит/сек
Максимальный битрейт                     : 6000 Кбит/сек
Ширина                                   : 720 пикселей
Высота                                   : 576 пикселей
Соотношение сторон                       : 4:3
Частота кадров                           : 25,000 кадров/сек
Стандарт вещания                         : PAL
Цветовое пространство                    : YUV
Субдискретизация насыщенности            : 4:2:0
Битовая глубина                          : 8 бит
Тип развёртки                            : Чересстрочная
Порядок развёртки                        : Нижнее поле первое
Метод сжатия                             : С потерями
Бит/(Пиксели*Кадры)                      : 0.517
Временной код первого кадра              : 00:26:42:22
Оригинал временного кода                 : Group of pictures header
GOP, открыто/закрыто                     : Открыто
Размер потока                            : 969 Мбайт (95%)
Аудио
Идентификатор                            : 189 (0xBD)-128 (0x80)
Формат                                   : AC-3
Формат/Информация                        : Audio Coding 3
Режим смешивания                         : DVD-Video
Продолжительность                        : 25 м. 15 с.
Вид битрейта                             : Постоянный
Битрейт                                  : 192 Кбит/сек
Каналы                                   : 2 канала
Расположение каналов                     : Front: L R
Частота                                  : 48,0 КГц
Частота кадров                           : 31,250 кадров/сек (1536 SPF)
Битовая глубина                          : 16 бит
Метод сжатия                             : С потерями
Задержка видео                           : -240 мс.
Размер потока                            : 34,7 Мбайт (3%)
ServiceKind/String                       : Complete Main
Меню
Общее
Полное имя                               : O:\MONAR\Документальные фильмы\Познавательные фильмы\Русский крест\VIDEO_TS\VTS_01_3.VOB
Формат                                   : MPEG-PS
Размер файла                             : 928 Мбайт
Продолжительность                        : 22 м. 17 с.
Режим общего битрейта                    : Переменный
Общий поток                              : 5821 Кбит/сек
Видео
Идентификатор                            : 224 (0xE0)
Формат                                   : MPEG Video
Версия формата                           : Version 2
Профиль формата                          : Main@Main
Настройки формата                        : CustomMatrix / BVOP
Параметр BVOP формата                    : Да
Параметр матрицы формата                 : Выборочная
Параметр GOP формата                     : M=3, N=15
Структура изображения                    : Frame
Продолжительность                        : 22 м. 17 с.
Вид битрейта                             : Переменный
Максимальный битрейт                     : 6000 Кбит/сек
Ширина                                   : 720 пикселей
Высота                                   : 576 пикселей
Соотношение сторон                       : 4:3
Частота кадров                           : 25,000 кадров/сек
Стандарт вещания                         : PAL
Цветовое пространство                    : YUV
Субдискретизация насыщенности            : 4:2:0
Битовая глубина                          : 8 бит
Тип развёртки                            : Чересстрочная
Порядок развёртки                        : Нижнее поле первое
Метод сжатия                             : С потерями
Временной код первого кадра              : 00:51:58:21
Оригинал временного кода                 : Group of pictures header
GOP, открыто/закрыто                     : Открыто
Аудио #1
Идентификатор                            : 189 (0xBD)-128 (0x80)
Формат                                   : AC-3
Формат/Информация                        : Audio Coding 3
Режим смешивания                         : DVD-Video
Продолжительность                        : 22 м. 17 с.
Вид битрейта                             : Постоянный
Битрейт                                  : 192 Кбит/сек
Каналы                                   : 2 канала
Расположение каналов                     : Front: L R
Частота                                  : 48,0 КГц
Частота кадров                           : 31,250 кадров/сек (1536 SPF)
Битовая глубина                          : 16 бит
Метод сжатия                             : С потерями
Задержка видео                           : -648 мс.
Размер потока                            : 30,6 Мбайт (3%)
ServiceKind/String                       : Complete Main
Аудио #2
Идентификатор                            : 221 (0xDD)
Формат                                   : MPEG Audio
Метод сжатия                             : С потерями
Меню
Общее
Полное имя                               : O:\MONAR\Документальные фильмы\Познавательные фильмы\Русский крест\VIDEO_TS\VTS_02_0.BUP
Формат                                   : DVD Video
Профиль формата                          : Program
Размер файла                             : 18,0 Кбайт
Продолжительность                        : 9 с. 840 мс.
Режим общего битрейта                    : Переменный
Общий поток                              : 15,0 Кбит/сек
FileExtension_Invalid                    : ifo
Видео
Идентификатор                            : 224 (0xE0)
Формат                                   : MPEG Video
Версия формата                           : Version 2
Продолжительность                        : 9 с. 840 мс.
Вид битрейта                             : Переменный
Ширина                                   : 720 пикселей
Высота                                   : 576 пикселей
Соотношение сторон                       : 4:3
Частота кадров                           : 25,000 кадров/сек
Стандарт вещания                         : PAL
Метод сжатия                             : С потерями
Аудио
Идентификатор                            : 128 (0x80)
Формат                                   : AC-3
Формат/Информация                        : Audio Coding 3
Продолжительность                        : 9 с. 840 мс.
Каналы                                   : 2 канала
Частота                                  : 48,0 КГц
Метод сжатия                             : С потерями
Меню
Продолжительность                        : 9 с. 840 мс.
00:00:00.000                             : Chapter 1
List (Audio)                             : 0
Общее
Полное имя                               : O:\MONAR\Документальные фильмы\Познавательные фильмы\Русский крест\VIDEO_TS\VTS_02_0.IFO
Формат                                   : DVD Video
Профиль формата                          : Program
Размер файла                             : 18,0 Кбайт
Продолжительность                        : 9 с. 840 мс.
Режим общего битрейта                    : Переменный
Общий поток                              : 15,0 Кбит/сек
Видео
Идентификатор                            : 224 (0xE0)
Формат                                   : MPEG Video
Версия формата                           : Version 2
Продолжительность                        : 9 с. 840 мс.
Вид битрейта                             : Переменный
Ширина                                   : 720 пикселей
Высота                                   : 576 пикселей
Соотношение сторон                       : 4:3
Частота кадров                           : 25,000 кадров/сек
Стандарт вещания                         : PAL
Метод сжатия                             : С потерями
Аудио
Идентификатор                            : 128 (0x80)
Формат                                   : AC-3
Формат/Информация                        : Audio Coding 3
Продолжительность                        : 9 с. 840 мс.
Каналы                                   : 2 канала
Частота                                  : 48,0 КГц
Метод сжатия                             : С потерями
Меню
Продолжительность                        : 9 с. 840 мс.
00:00:00.000                             : Chapter 1
List (Audio)                             : 0
Общее
Полное имя                               : O:\MONAR\Документальные фильмы\Познавательные фильмы\Русский крест\VIDEO_TS\VTS_02_0.VOB
Формат                                   : MPEG-PS
Размер файла                             : 10,0 Кбайт
Продолжительность                        : 40 мс.
Режим общего битрейта                    : Постоянный
Общий поток                              : 2048 Кбит/сек
Видео
Идентификатор                            : 224 (0xE0)
Формат                                   : MPEG Video
Версия формата                           : Version 2
Профиль формата                          : Main@Main
Настройки формата                        : CustomMatrix
Параметр BVOP формата                    : Нет
Параметр матрицы формата                 : Выборочная
Продолжительность                        : 40 мс.
Вид битрейта                             : Постоянный
Максимальный битрейт                     : 9000 Кбит/сек
Ширина                                   : 720 пикселей
Высота                                   : 576 пикселей
Соотношение сторон                       : 4:3
Частота кадров                           : 25,000 кадров/сек
Стандарт вещания                         : PAL
Цветовое пространство                    : YUV
Субдискретизация насыщенности            : 4:2:0
Битовая глубина                          : 8 бит
Тип развёртки                            : Прогрессивная
Порядок развёртки                        : Верхнее поле первое
Метод сжатия                             : С потерями
Временной код первого кадра              : 00:00:00:00
Оригинал временного кода                 : Group of pictures header
Основные цвета                           : BT.601 NTSC
Характеристики трансфера                 : BT.601
Коэффициенты матрицы                     : BT.601
Меню
Общее
Полное имя                               : O:\MONAR\Документальные фильмы\Познавательные фильмы\Русский крест\VIDEO_TS\VTS_02_1.VOB
Формат                                   : MPEG-PS
Размер файла                             : 2,57 Мбайт
Продолжительность                        : 9 с. 840 мс.
Режим общего битрейта                    : Переменный
Общий поток                              : 2188 Кбит/сек
Видео
Идентификатор                            : 224 (0xE0)
Формат                                   : MPEG Video
Версия формата                           : Version 2
Профиль формата                          : Main@Main
Настройки формата                        : CustomMatrix / BVOP
Параметр BVOP формата                    : Да
Параметр матрицы формата                 : Выборочная
Параметр GOP формата                     : M=3, N=15
Структура изображения                    : Frame
Продолжительность                        : 9 с. 840 мс.
Вид битрейта                             : Переменный
Битрейт                                  : 1952 Кбит/сек
Максимальный битрейт                     : 6000 Кбит/сек
Ширина                                   : 720 пикселей
Высота                                   : 576 пикселей
Соотношение сторон                       : 4:3
Частота кадров                           : 25,000 кадров/сек
Стандарт вещания                         : PAL
Цветовое пространство                    : YUV
Субдискретизация насыщенности            : 4:2:0
Битовая глубина                          : 8 бит
Тип развёртки                            : Чересстрочная
Порядок развёртки                        : Нижнее поле первое
Метод сжатия                             : С потерями
Бит/(Пиксели*Кадры)                      : 0.188
Временной код первого кадра              : 00:00:00:00
Оригинал временного кода                 : Group of pictures header
GOP, открыто/закрыто                     : Открыто
GOP, открыто/закрыто на первом кадре     : Закрыто
Размер потока                            : 2,29 Мбайт (89%)
Аудио
Идентификатор                            : 189 (0xBD)-128 (0x80)
Формат                                   : AC-3
Формат/Информация                        : Audio Coding 3
Режим смешивания                         : DVD-Video
Продолжительность                        : 9 с. 824 мс.
Вид битрейта                             : Постоянный
Битрейт                                  : 192 Кбит/сек
Каналы                                   : 2 канала
Расположение каналов                     : Front: L R
Частота                                  : 48,0 КГц
Частота кадров                           : 31,250 кадров/сек (1536 SPF)
Битовая глубина                          : 16 бит
Метод сжатия                             : С потерями
Размер потока                            : 230 Кбайт (9%)
ServiceKind/String                       : Complete Main
Меню
 
Не забывайте говорить Спасибо. Не уходите с раздачи!   
Торрент: Зарегистрирован [09 июн 2018, 20:07] Скачать торрент
Скачать торрент
[ Размер 30.67 КБ / Просмотров 2 ]
Статус:
Проверен
 
.torrent скачан: 0 раз
Хэш: 0da47e9dccdadd1eda77f2e50ebe7945eb0fb252
Размер: 2.91 ГБ (3 123 894 272 байт)
Стать Автором раздачи
 
 
Раздал: 0 байт
Скачал: 0 байт
Ратио: Inf.
Сообщения: 487468
Зарегистрирован: 17 апр 2014, 13:57


  • Похожие торренты
    Ответы
    Просмотры
    Последнее сообщение

Вернуться в Вера и религия (видео)

Ресурс не предоставляет электронные версии произведений, а занимается лишь коллекционированием и каталогизацией ссылок, присылаемых и публикуемых на форуме нашими читателями. Если вы являетесь правообладателем какого-либо представленного материала и не желаете чтобы ссылка на него находилась в нашем каталоге, свяжитесь с нами и мы незамедлительно удалим её. Файлы для обмена на трекере предоставлены пользователями сайта, и администрация не несёт ответственности за их содержание. Просьба не заливать файлы, защищенные авторскими правами, а также файлы нелегального содержания!
cron