Пристрели их / Shoot 'Em Up (Майкл Дэвис / Michael Davis) [2006, США, боевик, триллер, комедия, криминал, WEB-DLRip][Open Matte] Dub + MVO (Кравец) + MVO + Sub Rus, Eng + Original Eng

 
 Статистика раздачи 
Размер: 2.27 ГБ   |  Зарегистрирован: 09 июн 2018, 19:06   |   .torrent скачан: 0 раз
Сидеров: 1  [ 0 байт/сек ]     Личеров: 0  [ 0 байт/сек ]  
  

Пристрели их / Shoot 'Em Up (Майкл Дэвис / Michael Davis) [2006, США, боевик, триллер, комедия, криминал, WEB-DLRip][Open Matte] Dub + MVO (Кравец) + MVO + Sub Rus, Eng + Original Eng

Сообщение Nakazhu » 09 июн 2018, 19:06

Пристрели их / Shoot 'Em Up
Страна: США
Жанр
: боевик, триллер, комедия, криминал
Год выпуска: 2006
Продолжительность: 01:26:43
Перевод: Профессиональный (дублированный)
Перевод: Профессиональный (многоголосый закадровый) - Кравец
Перевод: Профессиональный (многоголосый закадровый)
Субтитры: русские 6x (R5, Воронин, Строев, Anatar, Sunny-Sko, Богдан Усенко), английские 2x (blu-ray, Amazon)
Оригинальная аудиодорожка: английский
Режиссер: Майкл Дэвис / Michael Davis
В ролях: Клайв Оуэн, Пол Джаматти, Моника Беллуччи, Стивен МакХэтти, Грег Брайк, Дэниэл Пилон, Джулиан Ричингс, Тони Манч, Скотт МакКорд, Рамона Прингл
Описание: Изгой, живущий воспоминаниями о собственном трагическом прошлом, спасает от верной смерти грудного младенца, оказавшись впутанным в правительственный заговор. Вместе с проституткой, ублажающей фантазии клиентов о грудном вскармливании и берущей на себя заботу о малыше, герой отсчитывает последние деньки двух коррумпированных чиновников
Сэмпл
Качество видео: WEB-DLRip
Формат видео
: AVI
Видео: 704x400 (1.76:1), 23.976 fps, XviD build 73 ~1945 kbps avg, 0.29 bit/pixel
Аудио: 48 kHz, AC3 Dolby Digital, 3/2 (L,C,R,l,r) + LFE ch, ~448 kbps- дубляж
отдельными файлами:
Аудио: 48 kHz, AC3 Dolby Digital, 3/2 (L,C,R,l,r) + LFE ch, ~448 kbps - Кравец
Аудио: 48 kHz, AC3 Dolby Digital, 3/2 (L,C,R,l,r) + LFE ch, ~448 kbps - многоголосый
Аудио: 48 kHz, AC3 Dolby Digital, 3/2 (L,C,R,l,r) + LFE ch, ~448 kbps - оригинал
Формат субтитров: softsub (SRT)
Код: Выделить всё
General
Complete name               : H:\Shoot.Em.Up.2006.web-dlrip_[Open.Matte]_[1.46]_[teko]\Shoot.Em.Up.2006.web-dlrip_[Open.Matte]_[1.46].avi
Format                      : AVI
Format/Info                 : Audio Video Interleave
File size                   : 1.46 GiB
Duration                    : 1h 26mn
Overall bit rate            : 2 403 Kbps
Writing application         : VirtualDubMod 1.5.10.3 | www.virtualdub-fr.org || (build 2550/release)
Writing library             : VirtualDubMod build 2550/release
Video
ID                          : 0
Format                      : MPEG-4 Visual
Format profile              : Advanced Simple@L5
Format settings, BVOP       : 2
Format settings, QPel       : No
Format settings, GMC        : No warppoints
Format settings, Matrix     : Custom
Codec ID                    : XVID
Codec ID/Hint               : XviD
Duration                    : 1h 26mn
Bit rate                    : 1 946 Kbps
Width                       : 704 pixels
Height                      : 400 pixels
Display aspect ratio        : 16:9
Frame rate                  : 23.976 (24000/1001) fps
Color space                 : YUV
Chroma subsampling          : 4:2:0
Bit depth                   : 8 bits
Scan type                   : Progressive
Compression mode            : Lossy
Bits/(Pixel*Frame)          : 0.288
Stream size                 : 1.18 GiB (81%)
Writing library             : XviD 73
Audio
ID                          : 1
Format                      : AC-3
Format/Info                 : Audio Coding 3
Mode extension              : CM (complete main)
Format settings, Endianness : Big
Codec ID                    : 2000
Duration                    : 1h 26mn
Bit rate mode               : Constant
Bit rate                    : 448 Kbps
Channel(s)                  : 6 channels
Channel positions           : Front: L C R, Side: L R, LFE
Sampling rate               : 48.0 KHz
Frame rate                  : 31.250 fps (1536 spf)
Compression mode            : Lossy
Stream size                 : 278 MiB (19%)
Alignment                   : Split accross interleaves
Interleave, duration        : 42 ms (1.00 video frame)
Interleave, preload duratio : 500 ms
Релиз группы:


 
Не забывайте говорить Спасибо. Не уходите с раздачи!   
Торрент: Зарегистрирован [09 июн 2018, 19:06] Скачать торрент
Скачать торрент
[ Размер 12.89 КБ / Просмотров 5 ]
Статус:
Проверен
 
.torrent скачан: 0 раз
Хэш: d6019359306161822a09e0ae358625eaf02a351b
Размер: 2.27 ГБ (2 437 765 353 байт)
Стать Автором раздачи
 
 
Раздал: 0 байт
Скачал: 0 байт
Ратио: Inf.
Сообщения: 487468
Зарегистрирован: 17 апр 2014, 13:57


  • Похожие торренты
    Ответы
    Просмотры
    Последнее сообщение

Вернуться в Зарубежные фильмы 2006-2010 года

Ресурс не предоставляет электронные версии произведений, а занимается лишь коллекционированием и каталогизацией ссылок, присылаемых и публикуемых на форуме нашими читателями. Если вы являетесь правообладателем какого-либо представленного материала и не желаете чтобы ссылка на него находилась в нашем каталоге, свяжитесь с нами и мы незамедлительно удалим её. Файлы для обмена на трекере предоставлены пользователями сайта, и администрация не несёт ответственности за их содержание. Просьба не заливать файлы, защищенные авторскими правами, а также файлы нелегального содержания!
cron