Перси Джексон и похититель молний / Percy Jackson & the Olympians: The Lightning Thief (2010) HDTVRip-AVC от SuperMin | D | Open Matte

 
 Статистика раздачи 
Размер: 1.85 ГБ   |  Зарегистрирован: 09 июн 2018, 16:33   |   .torrent скачан: 0 раз
Сидеров: 1  [ 0 байт/сек ]     Личеров: 0  [ 0 байт/сек ]  
  

Перси Джексон и похититель молний / Percy Jackson & the Olympians: The Lightning Thief (2010) HDTVRip-AVC от SuperMin | D | Open Matte

Сообщение aLaVodka » 09 июн 2018, 16:33

Информация о фильме
Название: Перси Джексон и похититель молний
Оригинальное название: Percy Jackson & the Olympians: The Lightning Thief
Год выхода: 2010
Жанр: фэнтези, приключения
Режиссер: Крис Коламбус
В ролях: Логан Лерман, Брэндон Т. Джексон, Александра Даддарио, Джэйк Абель, Шон Бин, Пирс Броснан, Стив Кугэн, Розарио Доусон, Кайл Корнелл, Мелина Канакаредес

Главный персонаж мальчик, узнавший, что его род берет начало от греческого бога. В сопровождении сатира и дочери Афины он отправляется в опасное путешествие, чтобы примирить богов. На протяжении всего фильма храбреца пытается остановить целый сонм мифологических врагов. Его также ждет встреча с отцом и оракулом, предсказывающим предательство друга.

Страна: США
Студия: 20th Century Fox
Продолжительность: 01:49:20
Перевод: Дубляж

Файл
Кодек: H.264
Качество: HDTVRip-AVC от SuperMin
Видео: 1024x576 (16:9), 1969 kbps, 29.970 fps
Звук: Русский (AC3, 6 ch, 448 Кбит/с)
Субтитры: Русские (форс., полные), английские

General
Unique ID : 207477359318495700218520291019760412064 (0x9C16AF97C1F5E5D8BE4E9E2A8C4D25A0)
Complete name : H:ФИЛЬМЫПерси Джексон и похититель молний (Open Matte).mkv
Format : Matroska
Format version : Version 4 / Version 2
File size : 1.85 GiB
Duration : 1 h 53 min
Overall bit rate : 2 337 kb/s
Movie name : Перси Джексон и похититель молний / Percy Jackson & the Olympians: The Lightning Thief (2010) (Open Matte) - #LORDKILL#
Encoded date : UTC 2018-06-09 02:35:14
Writing application : mkvmerge v9.5.0 ('Quiet Fire') 64bit
Writing library : libebml v1.3.4 + libmatroska v1.4.5

Video
ID : 1
Format : AVC
Format/Info : Advanced Video Codec
Format profile : High@L4.1
Format settings, CABAC : Yes
Format settings, ReFrames : 10 frames
Codec ID : V_MPEG4/ISO/AVC
Duration : 1 h 49 min
Bit rate : 1 969 kb/s
Width : 1 024 pixels
Height : 576 pixels
Display aspect ratio : 16:9
Frame rate mode : Constant
Frame rate : 29.970 (30000/1001) FPS
Color space : YUV
Chroma subsampling : 4:2:0
Bit depth : 8 bits
Scan type : Progressive
Bits/(Pixel*Frame) : 0.111
Stream size : 1.50 GiB (81%)
Writing library : x264 core 146 r2538 121396c
Encoding settings : cabac=1 / ref=10 / deblock=1:-3:-3 / analyse=0x3:0x113 / me=umh / subme=10 / psy=1 / psy_rd=1.00:0.15 / mixed_ref=1 / me_range=32 / chroma_me=1 / trellis=2 / 8x8dct=1 / cqm=0 / deadzone=21,11 / fast_pskip=0 / chroma_qp_offset=-3 / threads=12 / lookahead_threads=2 / sliced_threads=0 / nr=0 / decimate=1 / interlaced=0 / bluray_compat=0 / constrained_intra=0 / bframes=8 / b_pyramid=2 / b_adapt=2 / b_bias=0 / direct=1 / weightb=1 / open_gop=0 / weightp=2 / keyint=240 / keyint_min=24 / scenecut=40 / intra_refresh=0 / rc=crf / mbtree=0 / crf=20.0 / qcomp=0.60 / qpmin=0 / qpmax=69 / qpstep=4 / ip_ratio=1.40 / pb_ratio=1.30 / aq=1:1.00
Language : English
Default : Yes
Forced : No

Audio
ID : 2
Format : AC-3
Format/Info : Audio Coding 3
Mode extension : CM (complete main)
Format settings, Endianness : Big
Codec ID : A_AC3
Duration : 1 h 49 min
Bit rate mode : Constant
Bit rate : 448 kb/s
Channel(s) : 6 channels
Channel positions : Front: L C R, Side: L R, LFE
Sampling rate : 48.0 kHz
Frame rate : 31.250 FPS (1536 spf)
Bit depth : 16 bits
Compression mode : Lossy
Stream size : 350 MiB (19%)
Title : Профессиональный (полное дублирование)
Language : Russian
Default : Yes
Forced : No

Text #1
ID : 3
Format : UTF-8
Codec ID : S_TEXT/UTF8
Codec ID/Info : UTF-8 Plain Text
Duration : 1 h 12 min
Bit rate : 1 b/s
Count of elements : 10
Stream size : 602 Bytes (0%)
Title : форсированные
Language : Russian
Default : No
Forced : No

Text #2
ID : 4
Format : UTF-8
Codec ID : S_TEXT/UTF8
Codec ID/Info : UTF-8 Plain Text
Duration : 1 h 46 min
Bit rate : 73 b/s
Count of elements : 1169
Stream size : 56.9 KiB (0%)
Title : полные
Language : Russian
Default : No
Forced : No

Text #3
ID : 5
Format : UTF-8
Codec ID : S_TEXT/UTF8
Codec ID/Info : UTF-8 Plain Text
Duration : 1 h 52 min
Bit rate : 54 b/s
Count of elements : 1587
Stream size : 44.9 KiB (0%)
Title : английские
Language : English
Default : No
Forced : No
 
Не забывайте говорить Спасибо. Не уходите с раздачи!   
Торрент: Зарегистрирован [09 июн 2018, 16:33] Скачать торрент
Скачать торрент
[ Размер 19.5 КБ / Просмотров 4 ]
Статус:
Проверен
 
.torrent скачан: 0 раз
Хэш: fd6aac2aaca8539927e7e9b1acfde6cf7cf04b06
Размер: 1.85 ГБ (1 984 504 025 байт)
Стать Автором раздачи
 
 
Раздал: 100 ГБ
Скачал: 0 байт
Ратио: Seed.
Сообщения: 190841
Зарегистрирован: 09 апр 2015, 20:00


  • Похожие торренты
    Ответы
    Просмотры
    Последнее сообщение

Вернуться в Зарубежные фильмы 2006-2010 года

Ресурс не предоставляет электронные версии произведений, а занимается лишь коллекционированием и каталогизацией ссылок, присылаемых и публикуемых на форуме нашими читателями. Если вы являетесь правообладателем какого-либо представленного материала и не желаете чтобы ссылка на него находилась в нашем каталоге, свяжитесь с нами и мы незамедлительно удалим её. Файлы для обмена на трекере предоставлены пользователями сайта, и администрация не несёт ответственности за их содержание. Просьба не заливать файлы, защищенные авторскими правами, а также файлы нелегального содержания!
cron