Ананасовый экспресс: Сижу, курю / Pineapple Express (Дэвид Гордон Грин / David Gordon Green) [2008, США, комедия, криминал, триллер, DVDRip] Dub

 
 Статистика раздачи 
Размер: 1.46 ГБ   |  Зарегистрирован: 09 июн 2018, 15:43   |   .torrent скачан: 0 раз
Сидеров: 1  [ 0 байт/сек ]     Личеров: 0  [ 0 байт/сек ]  
  

Ананасовый экспресс: Сижу, курю / Pineapple Express (Дэвид Гордон Грин / David Gordon Green) [2008, США, комедия, криминал, триллер, DVDRip] Dub

Сообщение Nakazhu » 09 июн 2018, 15:43

Ананасовый экспресс: Сижу, курю / Pineapple Express
Страна: США
Жанр
: комедия, криминал, триллер
Год выпуска: 2008
Продолжительность: 01:47:25
Перевод: Профессиональный (дублированный)
Субтитры: нет
Режиссер: Дэвид Гордон Грин / David Gordon Green
В ролях: Сет Роген, Джеймс Франко, Дэнни МакБрайд, Кевин Корриган, Крэйг Робинсон, Гари Коул, Рози Перез, Эд Бегли мл., Нора Данн, Эмбер Хёрд
Описание: Двум никчемным торчкам выпадает шанс реально "взбодриться", когда они неожиданно попадают на мушку злобных бандитов. Дэйл Дентон навещает немногословного Сола Силвера, чтобы приобрести последнюю новинку - редкий сорт травы под названием "Ананасовый Экспресс". Но неожиданно эти двое становятся жертвами. На сей раз - повезло! Они становятся лишь жертвами обстоятельств, когда Дэйл оказывается единственным свидетелем убийства, совершенного продажным полицейским и самым опасным головорезом в городе - наркобароном, В панике Дэйл скидывает траву на месте преступления. И незадачливым парням приходится уносить ноги. Вскоре они осознают, что все события - это не просто наркотический бред, и, если уж им удастся выбраться из этого переплета, то "Ананасовый Экспресс" может подарить им кое-что получше мимолетного кайфа - он может привести их к настоящей дружбе.
Сэмпл
Качество видео: DVDRip
Формат видео
: AVI
Видео: 720x400 (1.80:1), 25 fps, XviD build 73 ~1485 kbps avg, 0.21 bit/pixel
Аудио: 48 kHz, AC3 Dolby Digital, 3/2 (L,C,R,l,r) + LFE ch, ~448 kbps
Код: Выделить всё
General
Complete name               : H:\Pineapple.Express.2008.dvdrip_[1.46]_[teko].avi
Format                      : AVI
Format/Info                 : Audio Video Interleave
File size                   : 1.46 GiB
Duration                    : 1h 47mn
Overall bit rate            : 1 944 Kbps
Writing application         : VirtualDubMod 1.5.10.3 | www.virtualdub-fr.org || (build 2550/release)
Writing library             : VirtualDubMod build 2550/release
Video
ID                          : 0
Format                      : MPEG-4 Visual
Format profile              : Advanced Simple@L5
Format settings, BVOP       : 2
Format settings, QPel       : No
Format settings, GMC        : No warppoints
Format settings, Matrix     : Custom
Codec ID                    : XVID
Codec ID/Hint               : XviD
Duration                    : 1h 47mn
Bit rate                    : 1 486 Kbps
Width                       : 720 pixels
Height                      : 400 pixels
Display aspect ratio        : 16:9
Frame rate                  : 25.000 fps
Color space                 : YUV
Chroma subsampling          : 4:2:0
Bit depth                   : 8 bits
Scan type                   : Progressive
Compression mode            : Lossy
Bits/(Pixel*Frame)          : 0.206
Stream size                 : 1.11 GiB (76%)
Writing library             : XviD 73
Audio
ID                          : 1
Format                      : AC-3
Format/Info                 : Audio Coding 3
Mode extension              : CM (complete main)
Format settings, Endianness : Big
Codec ID                    : 2000
Duration                    : 1h 47mn
Bit rate mode               : Constant
Bit rate                    : 448 Kbps
Channel(s)                  : 6 channels
Channel positions           : Front: L C R, Side: L R, LFE
Sampling rate               : 48.0 KHz
Frame rate                  : 31.250 fps (1536 spf)
Compression mode            : Lossy
Stream size                 : 344 MiB (23%)
Alignment                   : Split accross interleaves
Interleave, duration        : 40 ms (1.00 video frame)
Interleave, preload duratio : 500 ms
Релиз группы:


 
Не забывайте говорить Спасибо. Не уходите с раздачи!   
Торрент: Зарегистрирован [09 июн 2018, 15:43] Для скачивания .torrent
необходима регистрация
Или скачать с помощью
MediaGet
Статус:
Проверен
 
.torrent скачан: 0 раз
Хэш: 108b92cfddcf815f9a3735d618eeedb1d4622169
Размер: 1.46 ГБ (1 565 949 952 байт)
Стать Автором раздачи
 
 
Раздал: 0 байт
Скачал: 0 байт
Ратио: Inf.
Сообщения: 487468
Зарегистрирован: 17 апр 2014, 13:57


  • Похожие торренты
    Ответы
    Просмотры
    Последнее сообщение

Вернуться в Зарубежные фильмы 2006-2010 года

Ресурс не предоставляет электронные версии произведений, а занимается лишь коллекционированием и каталогизацией ссылок, присылаемых и публикуемых на форуме нашими читателями. Если вы являетесь правообладателем какого-либо представленного материала и не желаете чтобы ссылка на него находилась в нашем каталоге, свяжитесь с нами и мы незамедлительно удалим её. Файлы для обмена на трекере предоставлены пользователями сайта, и администрация не несёт ответственности за их содержание. Просьба не заливать файлы, защищенные авторскими правами, а также файлы нелегального содержания!
cron